Ссылка на приватное зеркало всего за 1$. Внимание количество ограничено!!!

OK

1+1

iTunes

мы

OK

1

WEB-DLRip

Джокер

Пифагор

Ведьмак / The Witcher сериал

Лицензия

ПШазам

ОК

Оно 2

iTunes

30
pack

Вам бонус

ВАЖНО

!!Акция!!

Alien_RageХит недели

RePack

Resident Evil 21

ИГРА 18+

pack

RePack

jed

RePack

fifa19

RePack

Assassins Creed: Odyssey

RePack

NEED FOR SPEED™ PAYBACK

4 сезон

9 сезон

Бесстыжие 9 сезон

Все сериалы

все сериалы на PB.wtf

RePack

FAR CRY 5
  

7 хранителей гробницы / 7 Guardians of the Tomb (Кимбл Рендалл) [2018, боевик, приключения, ужасы, WEB-DL 720p] MVO ["Синема УС"] pb.wtf

7 хранителей гробницы через торрент pb.wtf

Размер: 3.33 GB | Добавлен: 1 год 10 мес. назад | Торрент скачан:137 раз
Скачать  

26-02-2018 12:26 7 хранителей гробницы Скачать торрент  

7 хранителей гробницы / 7 Guardians of the TombГод выпуска: 2018
Страна: Китай, Австралия, Россия, Таиланд
Жанр: боевик, приключения, ужасы
Продолжительность: 01:31:29
Перевод: Любительский (многоголосый) ["Синема УС"]
Субтитры: отсутствуют

Режиссер: Кимбл Рендалл

rating

В ролях:

Ли Бинбин, Келлан Латс, У Чунь, Келси Грэммер, Стэф Доусон, Ясмин Кассим, Тим Драксл, Шэйн Джейкобсон, Райан Джонсон, Джейсон Чонг

Описание:

Команда археологов отправляется в древние подземелья, чтобы найти потерянного товарища, но находят вместо него колонию разумных пауков-людоедов.

Качество: WEB-DL 720p
Формат: MKV
Видео кодек: H.264
Аудио кодек: AC3

Видео: 4825 kb/s, 1280x546
Аудио#1: AC3, 2 ch, 384 kbps

скриншот  скриншот  скриншот  

Общее
Уникальный идентификатор : 182746488634394396766648662445458021134 (0x897BB1873391445E841CE25047615B0E)
Полное имя : D:\Guardians of the Tomb 2018.P.WEB-DL.72Op.mkv
Формат : Matroska
Версия формата : Version 2
Размер файла : 3,33 Гбайт
Продолжительность : 1 ч. 31 м.
Режим общего битрейта : Переменный
Общий поток : 5211 Кбит/сек
Дата кодирования : UTC 2018-02-24 10:25:10
Программа кодирования : mkvmerge v8.3.0 ('Over the Horizon') 64bit
Библиотека кодирования : libebml v1.3.1 + libmatroska v1.4.2

Видео
Идентификатор : 1
Формат : AVC
Формат/Информация : Advanced Video Codec
Профиль формата : High@L4.1
Параметр CABAC формата : Да
Параметр ReFrames формата : 4 кадра
Идентификатор кодека : V_MPEG4/ISO/AVC
Продолжительность : 1 ч. 31 м.
Вид битрейта : Переменный
Битрейт : 4825 Кбит/сек
Максимальный битрейт : 5200 Кбит/сек
Ширина : 1280 пикселей
Высота : 546 пикселей
Соотношение сторон : 2,35:1
Режим частоты кадров : Постоянный
Частота кадров : 23,976 (24000/1001) кадра/сек
Стандарт вещания : Component
Цветовое пространство : YUV
Субдискретизация насыщенности : 4:2:0
Битовая глубина : 8 бит
Тип развёртки : Прогрессивная
Бит/(Пиксели*Кадры) : 0.282
Размер потока : 3,02 Гбайт (91%)
Default : Да
Forced : Нет
Цветовой диапазон : Limited
Основные цвета : BT.709
Характеристики трансфера : BT.709
Коэффициенты матрицы : BT.709

Аудио
Идентификатор : 2
Формат : AC-3
Формат/Информация : Audio Coding 3
Расширение режима : CM (complete main)
Параметр Endianness формата : Big
Идентификатор кодека : A_AC3
Продолжительность : 1 ч. 31 м.
Вид битрейта : Постоянный
Битрейт : 384 Кбит/сек
Каналы : 2 канала
Расположение каналов : Front: L R
Частота : 48,0 КГц
Частота кадров : 31,250 кадров/сек (1536 spf)
Метод сжатия : С потерями
Размер потока : 251 Мбайт (7%)
Default : Да
Forced : Нет

pb.wtf



Скачать 7 хранителей гробницы через торрент http://img12.lostpic.net/2018/02/26/ee4fc14e4d6ece86cc8f59b0ce4a79d5.jpg Скачать фильм 7 хранителей гробницы через торрент бесплантно в хорошем качестве Описание: Команда археологов отправляется в древние подземелья, чтобы найти потерянного товарища, но находят вместо него колонию разумных ... 8.9 10 8
Торрент: Зарегистрирован [2018-02-26 12:26] · скачан: 137 раз
Статус: T временная
Размер: 3.33 GB
Как cкачать? Как скачать 7 хранителей гробницы через торрент | qTorrent

% Раздел Тема Автор DL S | L
T Фильмы (мультфильмы) cо спонсором показа (Новинки AVI/MKV) [ 3.46 GB ] 7 хранителей гробницы / 7 Guardians of the Tomb [2018 WEB-DL 1080p] DUB [Line] bober100 Скачать
1 | 0
T Фильмы (мультфильмы) cо спонсором показа (Новинки AVI/MKV) [ 1.37 GB ] 7 хранителей гробницы / 7 Guardians of the Tomb [2018 WEB-DLRip] DUB [Чистый звук] Loc387 Скачать
1 | 0
T Фильмы (мультфильмы) cо спонсором показа (Новинки AVI/MKV) [ 3.21 GB ] 7 хранителей гробницы / 7 Guardians of the Tomb [2018 WEB-DL 720p] DUB [Line] bober100 Скачать
1 | 0
T Фильмы (мультфильмы) cо спонсором показа (Новинки AVI/MKV) [ 1.37 GB ] 7 хранителей гробницы / 7 Guardians of the Tomb [2018 WEB-DLRip] MVO ["Синема УС"] bober100 Скачать
1 | 0

28-11-2019 20:33  

Отключить всю рекламу на сайте

26-02-2018 12:32 7 хранителей гробницы Скачать торрент  

разумные пауки-людоеды!!!!жестяк прям как у асилиума!!pb.wtf



26-02-2018 13:55 7 хранителей гробницы Скачать торрент  

хрень полнаяpb.wtf





Последний раз редактировалось: horton2011 (2018-02-27 09:43), всего редактировалось 1 раз

26-02-2018 15:15 7 хранителей гробницы Скачать торрент  

посмотрел.и правда дешевенький фильмец.будто сериальная часть по ТВ 3.pb.wtf



26-02-2018 19:31 7 хранителей гробницы Скачать торрент  

Сейчас и правда не хватает нормальных фильмов ужасов про животных-убийц. Снимают всякую херабору, а вот фильмов калибра "анаконда, крокодил-убийца, челюсти, боязнь пауков" и т.д. не наблюдается. А судя по нынешним тенденциям кино, и не будет в ближайшее время.pb.wtf



    Дорогой пользователь! Огромная просьба, поблагодарите релизера, оцените раздачу и оставьте свои комментарий, если Вы скачали 7 хранителей гробницы через торрент бесплатно! Внесите свою лепту в развитие PiratBit!
    Комментировать посты могут только пользователи прошедшие не сложную регистрацию
    Показать сообщения:    

    7 хранителей гробницы через торрент
    Скачать бесплатно 7 хранителей гробницы
    7 хранителей гробницы скачать торрент
    7 хранителей гробницы смотреть онлайн
    Cкачать фильм 7 хранителей гробницы бесплатно
    7 хранителей гробницы скачать торрент в хорошем качестве
    7 хранителей гробницы смотреть онлайн бесплатно в хорошем качестве


    Вы не можете начинать темы
    Вы не можете отвечать на сообщения
    Вы не можете редактировать свои сообщения
    Вы не можете удалять свои сообщения
    Вы не можете голосовать в опросах
    Вы не можете прикреплять файлы к сообщениям
    Вы можете скачивать файлы