2 сезон

iTunes

1 сезон

1

iTunes

iTunes

iTunes

1 сезон

RePack

30

ИГРА 18+

pack

ВАЖНО

!!Акция!!

Alien_RageХит недели

RePack

MK11
pack

Забери бонус

RePack

jed

!!Акция!!

Alien_Rage

RePack

fifa19

RePack

Assassins Creed: Odyssey

RePack

NEED FOR SPEED™ PAYBACK

4 сезон

9 сезон

Бесстыжие 9 сезон

Все сериалы

все сериалы на PB.wtf

RePack

FAR CRY 5
  

Яблочко от яблоньки / Серии 1-4 из 4 (Юрий Морозов) [2017, Мелодрама, WEB-DLRip] pb.wtf

Яблочко от яблоньки через торрент pb.wtf

Размер: 2.73 GB | Добавлен: 2 года 8 мес. назад | Торрент скачан:51 раз
Скачать  

26-02-2018 15:04 Яблочко от яблоньки Скачать торрент  

Яблочко от яблонькиГод выпуска: 2017
Страна: Россия
Жанр: Мелодрама
Продолжительность: 2 х ~ 01:30:00 (два файла по две серии)
Субтитры: отсутствуют

Режиссер: Юрий Морозов

В ролях:

Елена Радевич, Евгений Шириков, Елена Валюшкина, Владислав Ветров, Юлия Такшина, Дмитрий Мухамадеев, Янина Соколовская, Олег Акулич, Ольга Анохина, Наталия Гаранина, Ирина Рындина, Надежда Подъяпольская, Валентин Валл, Анна Шерлинг, Ирина Сидорова

Описание:

Миша вместе с женой Галей живет в селе, и мечтает сделать ремонт в новом доме. Но денег у них нет. Галя работает швеей в ателье, Михаил мастер по электроприборам. Они добрые и безотказные люди, чей добротой пользовались все окружающие: и начальница Гали и соседи, для которых Миша работает практически бесплатно. Этим обстоятельством очень недовольна мать Галины – Людмила Петровна. Она активно вмешивается в жизнь молодых – изо всех сил «пилит» зятя и поучает дочь. Масла в огонь добавляют постоянные ссоры тещи с отцом Михаила – Борисом. Овдовев много лет назад, Борис не спешит искать себе постоянную пару: местный Казанова сдает жилье одиноким женщинам и с каждой заводит роман. Когда Михаил решает поехать на заработки в город на стройку, Людмила советует дочери не отпускать мужа. Но Галя уверена в супруге. Однако «яблочко от яблоньки не далеко катится». В городе Михаил встречает бойкую и самодостаточную красавицу Нину и… бросает жену…

Качество: WEB-DLRip
Формат: AVI

Видео: XviD, 1980 Кбит/с, 720x400
Аудио: AC3, 2 ch, 192 Кбит/с
скриншот   скриншот   скриншот   скриншот  

Общее
Полное имя : D:\Яблочко от яблоньки.2017.WEB-DLRip.Files-x\01.,Яблочко от яблоньки.2017.WEB-DLRip.Files-x.avi
Формат : AVI
Формат/Информация : Audio Video Interleave
Размер файла : 1,36 Гбайт
Продолжительность : 1 ч. 29 м.
Общий поток : 2182 Кбит/сек
Программа кодирования : VirtualDubMod 1.5.10.3 | www.virtualdub-fr.org || (build 2550/release)
Библиотека кодирования : VirtualDubMod build 2550/release

Видео
Идентификатор : 0
Формат : MPEG-4 Visual
Профиль формата : Advanced Simple@L5
Параметр BVOP формата : 1
Параметр QPel формата : Нет
Параметр GMC формата : Без точки перехода
Параметр матрицы формата : Выборочная
Идентификатор кодека : XVID
Идентификатор кодека/Подсказка : XviD
Продолжительность : 1 ч. 29 м.
Битрейт : 1981 Кбит/сек
Ширина : 720 пикселей
Высота : 400 пикселей
Соотношение сторон : 16:9
Частота кадров : 25,000 кадров/сек
Цветовое пространство : YUV
Субдискретизация насыщенности : 4:2:0
Битовая глубина : 8 бит
Тип развёртки : Прогрессивная
Метод сжатия : С потерями
Бит/(Пиксели*Кадры) : 0.275
Размер потока : 1,24 Гбайт (91%)
Библиотека кодирования : XviD 73

Аудио
Идентификатор : 1
Формат : AC-3
Формат/Информация : Audio Coding 3
Расширение режима : CM (complete main)
Параметр Endianness формата : Big
Идентификатор кодека : 2000
Продолжительность : 1 ч. 29 м.
Вид битрейта : Постоянный
Битрейт : 192 Кбит/сек
Каналы : 2 канала
Расположение каналов : Front: L R
Частота : 48,0 КГц
Частота кадров : 31,250 кадров/сек (1536 spf)
Метод сжатия : С потерями
Размер потока : 123 Мбайт (9%)
Выравнивание : Разделение по промежуткам
Продолжительность промежутка : 40 мс. (1,00 видеокадр)
Время предзагрузки промежутка : 500 мс.

pb.wtf



Скачать Яблочко от яблоньки через торрент http://i100.fastpic.ru/big/2018/0225/2b/c34a83300875a748bd03e838dfb9732b.jpg Скачать фильм Яблочко от яблоньки через торрент бесплантно в хорошем качестве Описание: Миша вместе с женой Галей живет в селе, и мечтает сделать ремонт в новом доме. Но денег у них нет. Галя работает швеей в ателье, ... 10 10 4
Торрент: Зарегистрирован [2018-02-26 15:04] · скачан: 51 раз
Статус: √ проверено
Размер: 2.73 GB
Как cкачать? Как скачать Яблочко от яблоньки через торрент | qTorrent

% Раздел Тема Автор DL S | L
Наши сериалы [ 2.41 GB ] Яблочко от яблоньки / Серия 1-4 из 4 / [2018 Мело SATRip] oleg8 Скачать
1 | 0

28-11-2019 20:33  

Отключить всю рекламу на сайте

    Дорогой пользователь! Огромная просьба, поблагодарите релизера, оцените раздачу и оставьте свои комментарий, если Вы скачали Яблочко от яблоньки через торрент бесплатно! Внесите свою лепту в развитие PiratBit!
    Комментировать посты могут только пользователи прошедшие не сложную регистрацию
    Показать сообщения:    

    Яблочко от яблоньки через торрент
    Скачать бесплатно Яблочко от яблоньки
    Яблочко от яблоньки скачать торрент
    Яблочко от яблоньки смотреть онлайн
    Cкачать фильм Яблочко от яблоньки бесплатно
    Яблочко от яблоньки скачать торрент в хорошем качестве
    Яблочко от яблоньки смотреть онлайн бесплатно в хорошем качестве


    Вы не можете начинать темы
    Вы не можете отвечать на сообщения
    Вы не можете редактировать свои сообщения
    Вы не можете удалять свои сообщения
    Вы не можете голосовать в опросах
    Вы не можете прикреплять файлы к сообщениям
    Вы можете скачивать файлы