Ссылка на приватное зеркало всего за 1$. Внимание количество ограничено!!!

OK

1+1

iTunes

мы

OK

1

WEB-DLRip

Джокер

Пифагор

Ведьмак / The Witcher сериал

iTunes

ПШазам

ОК

Оно 2

iTunes

30
pack

Вам бонус

ВАЖНО

!!Акция!!

Alien_RageХит недели

RePack

Resident Evil 21

ИГРА 18+

pack

RePack

jed

RePack

fifa19

RePack

Assassins Creed: Odyssey

RePack

NEED FOR SPEED™ PAYBACK

4 сезон

9 сезон

Бесстыжие 9 сезон

Все сериалы

все сериалы на PB.wtf

RePack

FAR CRY 5
  

Свадьба Уайлд / The Wilde Wedding (Дэмиэн Харрис) [2017, комедия, BDRip 720p] DUB [Line] pb.wtf

Свадьба Уайлд через торрент pb.wtf

Размер: 4.28 GB | Добавлен: 1 год 11 мес. назад | Торрент скачан:9 раз
Скачать  

26-02-2018 18:12 Свадьба Уайлд Скачать торрент  

Свадьба Уайлд / The Wilde WeddingГод выпуска: 2017
Страна: США
Жанр: комедия
Продолжительность: 01:37:59
Перевод: Дубляж - Line
Субтитры: отсутствуют

Режиссер: Дэмиэн Харрис

rating

В ролях:

Гленн Клоуз, Джон Малкович, Патрик Стюарт, Минни Драйвер, Грэйс Ван Паттен, Ноа Эммерих, Питер Фачинелли, Яэль Стоун, Лилли Энглерт, Кара Джексон

Описание:

История пожилой актрисы Евы Уайлд, которая в прошлом была легендой Голливуда. Пережив несколько громких романов и разводов, Ева на старости лет снова готовится к свадьбе.

Качество: BDRip 720p
Формат: MKV
Видео кодек: H.264
Аудио кодек: AC3

Видео: 5797 Кбит/с, 1280x536
Аудио#1: AC3, 2 ch, 448 Кбит/с

скриншот  скриншот  скриншот  

Общее
Уникальный идентификатор : 213158971933675305375858465997962744923 (0xA05CECB8E3A72C52AD4B30B5176E145B)
Полное имя : D:\The.wilde.wedding.2017.D.BDRip.72Op_KOSHARA.mkv
Формат : Matroska
Версия формата : Version 2
Размер файла : 4,28 Гбайт
Продолжительность : 1 ч. 37 м.
Режим общего битрейта : Переменный
Общий поток : 6246 Кбит/сек
Дата кодирования : UTC 2018-02-26 06:02:28
Программа кодирования : mkvmerge v8.3.0 ('Over the Horizon') 64bit
Библиотека кодирования : libebml v1.3.1 + libmatroska v1.4.2

Видео
Идентификатор : 1
Формат : AVC
Формат/Информация : Advanced Video Codec
Профиль формата : High@L4.1
Параметр CABAC формата : Да
Параметр ReFrames формата : 4 кадра
Идентификатор кодека : V_MPEG4/ISO/AVC
Продолжительность : 1 ч. 37 м.
Вид битрейта : Переменный
Битрейт : 5797 Кбит/сек
Максимальный битрейт : 6700 Кбит/сек
Ширина : 1280 пикселей
Высота : 536 пикселей
Соотношение сторон : 2,40:1
Режим частоты кадров : Постоянный
Частота кадров : 23,976 (24000/1001) кадра/сек
Стандарт вещания : Component
Цветовое пространство : YUV
Субдискретизация насыщенности : 4:2:0
Битовая глубина : 8 бит
Тип развёртки : Прогрессивная
Бит/(Пиксели*Кадры) : 0.345
Размер потока : 3,88 Гбайт (91%)
Default : Да
Forced : Нет
Цветовой диапазон : Limited
Основные цвета : BT.709
Характеристики трансфера : BT.709
Коэффициенты матрицы : BT.709

Аудио
Идентификатор : 2
Формат : AC-3
Формат/Информация : Audio Coding 3
Расширение режима : CM (complete main)
Параметр Endianness формата : Big
Идентификатор кодека : A_AC3
Продолжительность : 1 ч. 37 м.
Вид битрейта : Постоянный
Битрейт : 448 Кбит/сек
Каналы : 2 канала
Расположение каналов : Front: L R
Частота : 48,0 КГц
Частота кадров : 31,250 кадров/сек (1536 spf)
Метод сжатия : С потерями
Размер потока : 314 Мбайт (7%)
Default : Да
Forced : Нет

pb.wtf



Скачать Свадьба Уайлд через торрент http://img12.lostpic.net/2018/02/26/0458edbf8c4f825a5ef9468d7c1199f0.jpg Скачать фильм Свадьба Уайлд через торрент бесплантно в хорошем качестве Описание: История пожилой актрисы Евы Уайлд, которая в прошлом была легендой Голливуда. Пережив несколько громких романов и разводов, Ева ... 7 10 3
Торрент: Зарегистрирован [2018-02-26 18:12] · скачан: 9 раз
Статус: # сомнительно
Размер: 4.28 GB
Как cкачать? Как скачать Свадьба Уайлд через торрент | qTorrent

% Раздел Тема Автор DL S | L
Фильмы [HD 720p, 1080p] (Хороший звук DUB, MVO) [ 5.44 GB ] Свадьба Уайлд / The Wilde Wedding [2017 BDRip 720p] killermax2013 Скачать
1 | 0
T Фильмы (мультфильмы) cо спонсором показа (Новинки AVI/MKV) [ 1.37 GB ] Свадьба Уайлд / The Wilde Wedding [2017 HDRip] DUB [Line] bober100 Скачать
1 | 0

28-11-2019 20:33  

Отключить всю рекламу на сайте

    Дорогой пользователь! Огромная просьба, поблагодарите релизера, оцените раздачу и оставьте свои комментарий, если Вы скачали Свадьба Уайлд через торрент бесплатно! Внесите свою лепту в развитие PiratBit!
    Комментировать посты могут только пользователи прошедшие не сложную регистрацию
    Показать сообщения:    

    Свадьба Уайлд через торрент
    Скачать бесплатно Свадьба Уайлд
    Свадьба Уайлд скачать торрент
    Свадьба Уайлд смотреть онлайн
    Cкачать фильм Свадьба Уайлд бесплатно
    Свадьба Уайлд скачать торрент в хорошем качестве
    Свадьба Уайлд смотреть онлайн бесплатно в хорошем качестве


    Вы не можете начинать темы
    Вы не можете отвечать на сообщения
    Вы не можете редактировать свои сообщения
    Вы не можете удалять свои сообщения
    Вы не можете голосовать в опросах
    Вы не можете прикреплять файлы к сообщениям
    Вы можете скачивать файлы