Ссылка на приватное зеркало нашего сайта всего за 1$. Внимание количество ограничено!!!

2 сезон

iTunes

1 сезон

1

2 сезон

2 сезон

iTunes

1 сезон

RePack

30

Ultimate

ВАЖНО

ИГРА 18+

pack

RePack

MK11
pack

Забери бонус

RePack

jed

!!Акция!!

Alien_Rage

RePack

fifa19

RePack

Assassins Creed: Odyssey

RePack

NEED FOR SPEED™ PAYBACK

4 сезон

9 сезон

Бесстыжие 9 сезон

Все сериалы

все сериалы на PB.wtf

RePack

FAR CRY 5
  

Эш против Зловещих мертвецов / Ash vs Evil Dead / Сезон: 3 / Серии: 1-10 из 10 (Марк Бисли, Рик Джейкобсон, Тони Тилс) [2018, ужасы, фэнтези, боевик, комедия, WEBRip 1080p] AVO [Д.Пучков "ака" Гоблин] pb.wtf

Эш против Зловещих мертвецов через торрент pb.wtf

Размер: 21.18 GB | Добавлен: 2 года 6 мес. назад | Торрент скачан:111 раз
Скачать  

26-02-2018 18:48 Эш против Зловещих мертвецов Скачать торрент  

Эш против Зловещих мертвецов / Ash vs Evil DeadГод выпуска: 2018
Страна: США
Жанр: ужасы, фэнтези, боевик, комедия
Продолжительность: ~ 00:40:00
Перевод: Авторский одноголосный • Д.Пучков "ака" Гоблин
Субтитры: Английские

Режиссер: Марк Бисли, Рик Джейкобсон, Тони Тилс

rating

В ролях:

Брюс Кэмпбелл, Рэй Сантьяго, Дэна ДеЛоренцо, Люси Лоулесс, Джилл Мари Джонс, Ариэль О Нилл, Тед Рэйми, Ли Мэйджорс, Мишель Херд, Джоэль Тобек

Описание:

Последние тридцать лет Эш старательно избегал всего, что связано с воспоминаниями о зловещих мертвецах, но когда очередное нашествие дедайтов грозит уничтожить всё население планеты, Эш становится единственным шансом человечества на спасение.

Качество: WEBRip 1080p
Формат: MKV

Видео: MPEG-4 AVC, ~ 9587 Кбит/с, 1920x1080
Аудио#1: Русский (АС3, 2 ch, 192 Кбит/с)
Аудио#2: английский (АС3, 6 ch, 640 Кбит/с)
скриншот  скриншот  скриншот  

Общее
Уникальный идентификатор : 242735317350757372794682723617559935100 (0xB69D1F22CA750CEAA67F5A198215F87C)
Полное имя : D:\Ash.vs.Evil.Dead.(Season.03).Goblin.1080\Ash.vs.Evil.Dead.S03E01.1080p.Goblin.mkv
Формат : Matroska
Версия формата : Version 4 / Version 2
Размер файла : 2,06 Гбайт
Продолжительность : 28 м. 19 с.
Режим общего битрейта : Переменный
Общий поток : 10,4 Мбит/сек
Название фильма : Justice League 2017 1080p BluRay x264 Atmos TrueHD7.1-HDChina
Дата кодирования : UTC 2018-02-26 09:42:23
Программа кодирования : mkvmerge v8.3.0 ('Over the Horizon') 64bit
Библиотека кодирования : libebml v1.3.1 + libmatroska v1.4.2

Видео
Идентификатор : 1
Формат : AVC
Формат/Информация : Advanced Video Codec
Профиль формата : High@L4
Параметр CABAC формата : Да
Параметр RefFrames формата : 4 кадра
Идентификатор кодека : V_MPEG4/ISO/AVC
Продолжительность : 28 м. 19 с.
Вид битрейта : Переменный
Битрейт : 9587 Кбит/сек
Максимальный битрейт : 15,0 Мбит/сек
Ширина : 1920 пикселей
Высота : 1080 пикселей
Соотношение сторон : 16:9
Режим частоты кадров : Постоянный
Частота кадров : 23,976 (24000/1001) кадра/сек
Цветовое пространство : YUV
Субдискретизация насыщенности : 4:2:0
Битовая глубина : 8 бит
Тип развёртки : Прогрессивная
Бит/(Пиксели*Кадры) : 0.193
Размер потока : 1,90 Гбайт (92%)
Default : Да
Forced : Нет
Цветовой диапазон : Limited
Основные цвета : BT.709
Характеристики трансфера : BT.709
Коэффициенты матрицы : BT.709

Аудио #1
Идентификатор : 2
Формат : AC-3
Формат/Информация : Audio Coding 3
Расширение режима : CM (complete main)
Параметр Endianness формата : Big
Идентификатор кодека : A_AC3
Продолжительность : 28 м. 19 с.
Вид битрейта : Постоянный
Битрейт : 192 Кбит/сек
Каналы : 2 канала
Расположение каналов : Front: L R
Частота : 48,0 КГц
Частота кадров : 31,250 кадров/сек (1536 spf)
Метод сжатия : С потерями
Размер потока : 38,9 Мбайт (2%)
Язык : Russian
Default : Да
Forced : Нет

Аудио #2
Идентификатор : 3
Формат : E-AC-3
Формат/Информация : Audio Coding 3
Параметр Endianness формата : Big
Идентификатор кодека : A_EAC3
Продолжительность : 28 м. 19 с.
Вид битрейта : Постоянный
Битрейт : 640 Кбит/сек
Каналы : 6 каналов
Расположение каналов : Front: L C R, Side: L R, LFE
Частота : 48,0 КГц
Частота кадров : 187,500 кадров/сек (256 spf)
Метод сжатия : С потерями
Размер потока : 130 Мбайт (6%)
Язык : English
Default : Нет
Forced : Нет

Текст #1
Идентификатор : 4
Формат : UTF-8
Идентификатор кодека : S_TEXT/UTF8
Идентификатор кодека/Информация : UTF-8 Plain Text
Продолжительность : 27 м. 19 с.
Битрейт : 51 бит/сек
ElementCount : 406
Размер потока : 10,3 Кбайт (0%)
Язык : English
Default : Нет
Forced : Нет

Текст #2
Идентификатор : 5
Формат : UTF-8
Идентификатор кодека : S_TEXT/UTF8
Идентификатор кодека/Информация : UTF-8 Plain Text
Продолжительность : 27 м. 19 с.
Битрейт : 75 бит/сек
ElementCount : 556
Размер потока : 15,2 Кбайт (0%)
Заголовок : SDH
Язык : English
Default : Нет
Forced : Нет

Когда раздача ведётся путём добавления новых серий, при каждом добавлении создётся новый торрент. Чтобы начать докачку новой серии, пользователям необходимо сделать следующее:
(1) остановить скачивание,
(2) удалить старый торрент у себя из клиента (старые серии удалять не надо),
(3) скачать новый торрент и запустить его у себя в клиенте вместо старого, при этом указать клиенту путь в старую папку, куда и должно происходить скачивание новых серий.
Ваш клиент при этом должен произвести хеширование (проверку) старой папки (если не производит сам - помогите ему сделать это), и будет докачивать только те серии, которых у вас ещё нет. Старые серии при этом не удаляются, а продолжают раздаваться!
Eсли вы уже удалили старые серии, то предотвратить повторную закачку старых серий можно, отжав галочку в соответсвующих местах при запуске нового торрента. По возможности, желательно не удалять старые серии как можно дольше, чтобы релизёр не столько продолжал раздавать старые серии, а смог сконцентрироваться на новых.
pb.wtf



Скачать Эш против Зловещих мертвецов через торрент http://img12.lostpic.net/2018/02/25/2311c5c24746f9be16aaa4b58ea9a681.jpg Скачать фильм Эш против Зловещих мертвецов через торрент бесплантно в хорошем качестве Описание: Последние тридцать лет Эш старательно избегал всего, что связано с воспоминаниями о зловещих мертвецах, но когда очередное ... 10 10 7
Info! Золотая раздача, скачанное не засчитывается.
Торрент: Зарегистрирован [2018-05-01 02:16] · скачан: 111 раз
Статус: √ проверено
Размер: 21.18 GB
Как cкачать? Как скачать Эш против Зловещих мертвецов через торрент | qTorrent

% Раздел Тема Автор DL S | L
Зарубежные сериалы [ 20.65 GB ] Эш против Зловещих мертвецов / Ash vs Evil Dead / Сезон 3 / Серии 1-10 из 10 [2018 WEB-DL 1080p] [MVO] [AlexFilm] killermax2013 Скачать
1 | 0
Зарубежные сериалы [ 5.43 GB ] Эш против Зловещих мертвецов / Ash vs Evil Dead / Сезон 3 / Серии 1-7 из 10 [2018 WEB-DL 720p] [DVO] killermax2013 Скачать
1 | 0
Зарубежные сериалы [ 8.42 GB ] Эш против Зловещих мертвецов / Ash vs Evil Dead / Сезон: 3 / Серии: 1-10 из 10 [2018 WEB-DL 720p] MVO [NewStudio] bober100 Скачать
1 | 0
Зарубежные сериалы [ 21.64 GB ] Эш против Зловещих мертвецов / Ash vs Evil Dead / Сезон: 3 / Серии: 1-10 из 10 [2018 WEB-DL 1080p] MVO [NewStudio] bober100 Скачать
1 | 0
Зарубежные сериалы [ 7.75 GB ] Эш против Зловещих мертвецов / Ash vs Evil Dead / Сезон 3 / Серии 1-10 из 10 [2018 WEB-DL 720p] [MVO] [AlexFilm] killermax2013 Скачать
1 | 0
Зарубежные сериалы [ 8.62 GB ] Эш против Зловещих мертвецов / Ash vs Evil Dead / Сезон: 3 / Серии 1-10 из 10 [2018 WEBRip 720p] MVO [BaibaKo] GEKADOL Скачать
1 | 0
Зарубежные сериалы [ 2.83 GB ] Эш против Зловещих мертвецов / Ash vs Evil Dead / Сезон: 3 / Серии: 1-10 из 10 [2018 WEB-DLRip] MVO [NewStudio] bober100 Скачать
1 | 0


Последний раз редактировалось: bober100 (2018-05-01 02:15), всего редактировалось 5 раз(а)

28-11-2019 20:33  

Отключить всю рекламу на сайте

24-03-2018 05:28 Эш против Зловещих мертвецов Скачать торрент  

жжешь! лепи еще!pb.wtf



    Дорогой пользователь! Огромная просьба, поблагодарите релизера, оцените раздачу и оставьте свои комментарий, если Вы скачали Эш против Зловещих мертвецов через торрент бесплатно! Внесите свою лепту в развитие PiratBit!
    Комментировать посты могут только пользователи прошедшие не сложную регистрацию
    Показать сообщения:    

    Эш против Зловещих мертвецов через торрент
    Скачать бесплатно Эш против Зловещих мертвецов
    Эш против Зловещих мертвецов скачать торрент
    Эш против Зловещих мертвецов смотреть онлайн
    Cкачать фильм Эш против Зловещих мертвецов бесплатно
    Эш против Зловещих мертвецов скачать торрент в хорошем качестве
    Эш против Зловещих мертвецов смотреть онлайн бесплатно в хорошем качестве


    Вы не можете начинать темы
    Вы не можете отвечать на сообщения
    Вы не можете редактировать свои сообщения
    Вы не можете удалять свои сообщения
    Вы не можете голосовать в опросах
    Вы не можете прикреплять файлы к сообщениям
    Вы можете скачивать файлы