Ссылка на приватное зеркало нашего сайта всего за 1$. Внимание количество ограничено!!!

2 сезон

iTunes

iTunes

1

iTunes

iTunes

iTunes

WEBRip

iTunes

30
pack

Вам бонус

ВАЖНО

!!Акция!!

Alien_RageХит недели

RePack

Horizon Zero Dawn

ИГРА 18+

pack

RePack

jed

!!Акция!!

Alien_Rage

RePack

fifa19

RePack

Assassins Creed: Odyssey

RePack

NEED FOR SPEED™ PAYBACK

4 сезон

9 сезон

Бесстыжие 9 сезон

Все сериалы

все сериалы на PB.wtf

RePack

FAR CRY 5
  

Тень / The Shadow Effect (Обин Олсон, Амария Олсон) [2017, боевик, триллер, BDRip 720p] MVO [@MUZOBOZ@] pb.wtf

Тень через торрент pb.wtf

Размер: 4.41 GB | Добавлен: 2 года 7 мес. назад | Торрент скачан:37 раз
Скачать  

26-02-2018 20:01 Тень Скачать торрент  

Тень / The Shadow EffectГод выпуска: 2017
Страна: США
Жанр: боевик, триллер
Продолжительность: 01:36:04
Перевод: Любительский (многоголосый) [@MUZOBOZ@]
Субтитры: отсутствуют

Режиссер: Обин Олсон, Амария Олсон

rating

В ролях:

Джонатан Риз Майерс, Майкл Бин, Кэм Жиганде, Бриттани Шоу, Марк МакКалло, Майкл Аарон Миллиган, Марк Эшворт, Шерри Икин, Энди Мэзени, Райан Хомчик

Описание:

В своих навязчивых снах Габриел Ховарт преследует и мастерски убивает людей, а позднее обнаруживает, что его кошмары связаны с реальными политическими расправами. Он обращается за помощью к талантливому доктору Ризу, чтобы разоблачить и пресечь жестокий правительственный эксперимент и отвезти угрозу от своей жены.

Качество: BDRip 720p
Формат: MKV

Видео: MPEG-4 AVC, 6118 kb/s, 1280x536
Аудио#1: Русский (AC3, 2 ch, 448 Кбит/с)
скриншот  скриншот  скриншот  

Общее
Уникальный идентификатор : 237119067280869493922009368341661640386 (0xB26378A0F73035D7915EAE91A22866C2)
Полное имя : D:\The.Shadow.Effect.2017.P.BDRip.72Op_KOSHARA.mkv
Формат : Matroska
Версия формата : Version 2
Размер файла : 4,41 Гбайт
Продолжительность : 1 ч. 36 м.
Режим общего битрейта : Переменный
Общий поток : 6568 Кбит/сек
Дата кодирования : UTC 2018-02-26 15:56:17
Программа кодирования : mkvmerge v8.3.0 ('Over the Horizon') 64bit
Библиотека кодирования : libebml v1.3.1 + libmatroska v1.4.2

Видео
Идентификатор : 1
Формат : AVC
Формат/Информация : Advanced Video Codec
Профиль формата : High@L4.1
Параметр CABAC формата : Да
Параметр ReFrames формата : 4 кадра
Идентификатор кодека : V_MPEG4/ISO/AVC
Продолжительность : 1 ч. 36 м.
Вид битрейта : Переменный
Битрейт : 6118 Кбит/сек
Максимальный битрейт : 6700 Кбит/сек
Ширина : 1280 пикселей
Высота : 536 пикселей
Соотношение сторон : 2,40:1
Режим частоты кадров : Постоянный
Частота кадров : 23,976 (24000/1001) кадра/сек
Стандарт вещания : Component
Цветовое пространство : YUV
Субдискретизация насыщенности : 4:2:0
Битовая глубина : 8 бит
Тип развёртки : Прогрессивная
Бит/(Пиксели*Кадры) : 0.364
Размер потока : 4,02 Гбайт (91%)
Default : Да
Forced : Нет
Цветовой диапазон : Limited
Основные цвета : BT.709
Характеристики трансфера : BT.709
Коэффициенты матрицы : BT.709

Аудио
Идентификатор : 2
Формат : AC-3
Формат/Информация : Audio Coding 3
Расширение режима : CM (complete main)
Параметр Endianness формата : Big
Идентификатор кодека : A_AC3
Продолжительность : 1 ч. 36 м.
Вид битрейта : Постоянный
Битрейт : 448 Кбит/сек
Каналы : 2 канала
Расположение каналов : Front: L R
Частота : 48,0 КГц
Частота кадров : 31,250 кадров/сек (1536 spf)
Метод сжатия : С потерями
Размер потока : 308 Мбайт (7%)
Default : Да
Forced : Нет

pb.wtf



Скачать Тень через торрент http://img12.lostpic.net/2018/02/26/3f6dc874075d2dc0ea7b9c8426f16248.jpg Скачать фильм Тень через торрент бесплантно в хорошем качестве Описание: В своих навязчивых снах Габриел Ховарт преследует и мастерски убивает людей, а позднее обнаруживает, что его кошмары связаны с ... 7.8 10 4
Торрент: Зарегистрирован [2018-02-26 20:01] · скачан: 37 раз
Статус: # сомнительно
Размер: 4.41 GB
Как cкачать? Как скачать Тень через торрент | qTorrent

% Раздел Тема Автор DL S | L
T Фильмы (мультфильмы) cо спонсором показа (Новинки AVI/MKV) [ 1.37 GB ] Тень / The Shadow Effect [2017 HDRip] MVO [@MUZOBOZ@] bober100 Скачать
1 | 0
Фильмы без перевода [ 18.22 GB ] Тень / The Shadow Effect [2017 BD Remux] [Оригинал-ENG] smaster Скачать
1 | 0

28-11-2019 20:33  

Отключить всю рекламу на сайте

    Дорогой пользователь! Огромная просьба, поблагодарите релизера, оцените раздачу и оставьте свои комментарий, если Вы скачали Тень через торрент бесплатно! Внесите свою лепту в развитие PiratBit!
    Комментировать посты могут только пользователи прошедшие не сложную регистрацию
    Показать сообщения:    

    Тень через торрент
    Скачать бесплатно Тень
    Тень скачать торрент
    Тень смотреть онлайн
    Cкачать фильм Тень бесплатно
    Тень скачать торрент в хорошем качестве
    Тень смотреть онлайн бесплатно в хорошем качестве


    Вы не можете начинать темы
    Вы не можете отвечать на сообщения
    Вы не можете редактировать свои сообщения
    Вы не можете удалять свои сообщения
    Вы не можете голосовать в опросах
    Вы не можете прикреплять файлы к сообщениям
    Вы можете скачивать файлы