новый адрес
Ссылка на приватное зеркало всего за 1$. Внимание количество ограничено!!!

iTunes

1+1

iTunes

мы

WEB-DL

1

iTunes

Чернобыль

iTunes

Ральф против интернета

Лицензия

ПШазам

Лицензия

Оно 2

Лицензия

30
pack

Вам бонус

ВАЖНО

!!Акция!!

Alien_RageХит недели

RePack

Resident Evil 21

ИГРА 18+

pack

RePack

jed

!!Акция!!

Alien_Rage

RePack

fifa19

RePack

Assassins Creed: Odyssey

RePack

NEED FOR SPEED™ PAYBACK

3 сезон

9 сезон

Бесстыжие 9 сезон

Все сериалы

все сериалы на PB.wtf

RePack

FAR CRY 5
Ребята, катастрофически не хватает 1900р. для оплаты серверов за Октябрь (всвязи с блокировками трафик упал в 3 раза), 1-2р., выручайте.
  

Восставший из ада 10: Приговор / Hellraiser: Judgment (Гэри Дж. Танниклифф) [2018, ужасы, BDRip-AVC] MVO, DVO - ExKinoRay pb.wtf

Восставший из ада 10: Приговор через торрент pb.wtf

Размер: 1.84 GB | Добавлен: 1 год 9 мес. назад | Торрент скачан:645 раз
Скачать  

26-02-2018 22:10 Восставший из ада 10: Приговор Скачать торрент  

Название: Восставший из ада 10: Приговор
Оригинальное название: Hellraiser: Judgment
Год выпуска: 2018
Жанр: Ужасы
Выпущено: США, Dimension Films
Продолжительность: 01:21:10
Озвучка: Любительская (многоголосая) "Синема УС"
Любительская (двухголосая) "HiWay Grope"
Субтитры: Русские, английские
Режиссер: Гэри Дж. Танниклифф
В ролях: Рэнди Уэйн, Хэзер Лэнгенкэмп, Риган Уоллес, Алексис Харрис, Джон Гулагер, Пол Т. Тейлор, Майк Дж. Риган, Дэймон Карни, Молли Никки Андерсон, Мэри Кэтрин Брайант

Описание:
Профессиональные детективы Картеры расследуют очень сложное дело об убийствах. Но это далеко не простые преступления. Это серия жутких и пугающих убийств, которые совершает явно не совсем здоровый человек. Его надо остановить, иначе каждый рискует стать его жертвой. Для более эффективной работы, братья Картеры объединяются с другим детективом. Кристин Эджертон должна помочь парочке профессионалов. Они начинают с усиленной силой расследовать эти преступления. След, который они взяли, ведёт их в места, которые наполнены ужасом. В них лучше не попадать, иначе есть риск лишиться жизни. Но в погоне за справедливостью, герои готовы на всё. Лабиринт ужаса находится вне мира живых, и героям придётся опускаться всё ниже, чтобы найти сумасшедшего маньяка. Но чем глубже они спускаются в адские круги, тем больше осознают, что пошли по иному следу. Неужели психопат перехитрил их. Сенобиты ждут совсем не жертв преступлений. Но как будет развиваться история в дальнейшем, предсказать очень сложно. Получится ли у детективов добиться того, чего они хотят?


rating

Файл
Формат: MKV
Качество: BDRip-AVC
Видео: MPEG-4 AVC, 1024x576 (16:9), 23.976 fps, ~2220 kbps avg, 0.157 bit/pixel
Звук 1: AC3, 48.0 KHz, 2.0 ch, 192 kbps - RUS
Звук 2: AC3, 48.0 KHz, 2.0 ch, 384 kbps - RUS
Звук 3: AC3, 48.0 KHz, 5.1 ch, 448 kbps - ENG

Без какой-либо рекламы

Семпл
General
Unique ID : 231906912875145203116576256407713726964 (0xAE77A5937BB03AC19C9F8992DC81C1F4)
Complete name : D:\Hellraiser.Judgment.2018.2xRus.BDRip.AVC.ExKinoRay.mkv
Format : Matroska
Format version : Version 2
File size : 1.84 GiB
Duration : 1 h 21 min
Overall bit rate : 3 246 kb/s
Movie name : Hellraiser: Judgment 2018 from ExKinoRay
Encoded date : UTC 2018-02-26 13:13:55
Writing application : mkvmerge v5.6.0 ('Kenya Kane') built on May 27 2012 16:44:04
Writing library : libebml v1.2.3 + libmatroska v1.3.0

Video
ID : 1
Format : AVC
Format/Info : Advanced Video Codec
Format profile : High@L4.1
Format settings, CABAC : Yes
Format settings, ReFrames : 12 frames
Codec ID : V_MPEG4/ISO/AVC
Duration : 1 h 21 min
Bit rate : 2 220 kb/s
Width : 1 024 pixels
Height : 576 pixels
Display aspect ratio : 16:9
Frame rate mode : Constant
Frame rate : 23.976 (23976/1000) FPS
Color space : YUV
Chroma subsampling : 4:2:0
Bit depth : 8 bits
Scan type : Progressive
Bits/(Pixel*Frame) : 0.157
Stream size : 1.22 GiB (66%)
Title : Enigma
Writing library : x264 core 152 r2851 ba24899
Encoding settings : cabac=1 / ref=12 / deblock=1:-2:-2 / analyse=0x3:0x113 / me=umh / subme=10 / psy=1 / psy_rd=1.00:0.05 / mixed_ref=1 / me_range=32 / chroma_me=1 / trellis=2 / 8x8dct=1 / cqm=0 / deadzone=21,11 / fast_pskip=0 / chroma_qp_offset=-3 / threads=12 / lookahead_threads=3 / sliced_threads=0 / nr=0 / decimate=0 / interlaced=0 / bluray_compat=0 / constrained_intra=0 / bframes=10 / b_pyramid=2 / b_adapt=2 / b_bias=0 / direct=3 / weightb=1 / open_gop=0 / weightp=2 / keyint=240 / keyint_min=23 / scenecut=40 / intra_refresh=0 / rc_lookahead=40 / rc=2pass / mbtree=0 / bitrate=2220 / ratetol=1.0 / qcomp=0.60 / qpmin=0 / qpmax=51 / qpstep=4 / cplxblur=20.0 / qblur=0.5 / vbv_maxrate=50000 / vbv_bufsize=62500 / nal_hrd=none / filler=0 / ip_ratio=1.40 / pb_ratio=1.30 / aq=1:1.00
Language : English
Default : Yes
Forced : No
Color range : Limited
Color primaries : BT.709
Transfer characteristics : BT.709
Matrix coefficients : BT.709

Audio #1
ID : 2
Format : AC-3
Format/Info : Audio Coding 3
Mode extension : CM (complete main)
Format settings, Endianness : Big
Codec ID : A_AC3
Duration : 1 h 21 min
Bit rate mode : Constant
Bit rate : 192 kb/s
Channel(s) : 2 channels
Channel positions : Front: L R
Sampling rate : 48.0 kHz
Frame rate : 31.250 FPS (1536 spf)
Compression mode : Lossy
Stream size : 111 MiB (6%)
Title : MVO (Синема УС)
Language : Russian
Default : Yes
Forced : No

Audio #2
ID : 3
Format : AC-3
Format/Info : Audio Coding 3
Mode extension : CM (complete main)
Format settings, Endianness : Big
Codec ID : A_AC3
Duration : 1 h 21 min
Bit rate mode : Constant
Bit rate : 384 kb/s
Channel(s) : 2 channels
Channel positions : Front: L R
Sampling rate : 48.0 kHz
Frame rate : 31.250 FPS (1536 spf)
Compression mode : Lossy
Stream size : 223 MiB (12%)
Title : MVO (HiWay Grope)
Language : Russian
Default : No
Forced : No

Audio #3
ID : 4
Format : AC-3
Format/Info : Audio Coding 3
Mode extension : CM (complete main)
Format settings, Endianness : Big
Codec ID : A_AC3
Duration : 1 h 21 min
Bit rate mode : Constant
Bit rate : 448 kb/s
Channel(s) : 6 channels
Channel positions : Front: L C R, Side: L R, LFE
Sampling rate : 48.0 kHz
Frame rate : 31.250 FPS (1536 spf)
Compression mode : Lossy
Stream size : 260 MiB (14%)
Language : English
Default : No
Forced : No

Text #1
ID : 5
Format : UTF-8
Codec ID : S_TEXT/UTF8
Codec ID/Info : UTF-8 Plain Text
Language : Russian
Default : No
Forced : No

Text #2
ID : 6
Format : UTF-8
Codec ID : S_TEXT/UTF8
Codec ID/Info : UTF-8 Plain Text
Title : Full
Default : No
Forced : No

Text #3
ID : 7
Format : UTF-8
Codec ID : S_TEXT/UTF8
Codec ID/Info : UTF-8 Plain Text
Language : English
Default : No
Forced : No

Menu
00:00:00.000 : en:Chapter 01
00:05:49.558 : en:Chapter 02
00:12:04.766 : en:Chapter 03
00:15:52.743 : en:Chapter 04
00:21:34.877 : en:Chapter 05
00:26:13.572 : en:Chapter 06
00:31:02.069 : en:Chapter 07
00:35:51.232 : en:Chapter 08
00:41:51.300 : en:Chapter 09
00:48:38.833 : en:Chapter 10
00:53:17.611 : en:Chapter 11
00:58:53.155 : en:Chapter 12
01:02:25.158 : en:Chapter 13
01:06:47.670 : en:Chapter 14
01:12:42.900 : en:Chapter 15
01:17:07.832 : en:Chapter 16
Релиз от:

Автор релиза: pb.wtf



Скачать Восставший из ада 10: Приговор через торрент http://lostpix.com/img/2018-02/27/vfh0omdwr2971br7g98h70e3w.jpg Скачать фильм Восставший из ада 10: Приговор через торрент бесплантно в хорошем качестве Описание: Профессиональные детективы Картеры расследуют очень сложное дело об убийствах. Но это далеко не простые преступления. Это серия ... 9 10 15
Info! Золотая раздача, скачанное не засчитывается.
Торрент: Зарегистрирован [2018-02-26 22:10] · скачан: 645 раз
Статус: T временная
Размер: 1.84 GB
Как cкачать? Как скачать Восставший из ада 10: Приговор через торрент | qTorrent

28-11-2019 20:33  

Отключить всю рекламу на сайте

27-02-2018 06:37 Восставший из ада 10: Приговор Скачать торрент  

Спасибо за релиз!Клон пилы?Стоит смотреть или нет?pb.wtf



27-02-2018 14:14 Восставший из ада 10: Приговор Скачать торрент  

GhosTRaiNSergE писал(а):

Спасибо за релиз!Клон пилы?Стоит смотреть или нет?

Этот фильм скорее относится к таким как Пятница 13е, Хэллоуин и Кошмар на улице Вязов.pb.wtf



27-02-2018 18:14 Восставший из ада 10: Приговор Скачать торрент  

GhosTRaiNSergE писал(а):

Спасибо за релиз!Клон пилы?Стоит смотреть или нет?

Восставший из ада - это классика жанра ужасов. Один из популярнейших фильмов второй половины 80-х и начала 90-х годов. Интересно, старик может быть клоном подростка?pb.wtf



27-02-2018 19:13 Восставший из ада 10: Приговор Скачать торрент  

Года два хочу посмотреть все части, сам на 6 или 7 части остановился и то очень давно, а тут уже юбилейная часть, буду дома, будет время устрою марафон воставшего))) в анфас по мне он более мистичен когда на тебя смотрит, я про постер))pb.wtf



08-03-2018 17:10 Восставший из ада 10: Приговор Скачать торрент  

Мангуст писал(а):

GhosTRaiNSergE писал(а):

Спасибо за релиз!Клон пилы?Стоит смотреть или нет?

Восставший из ада - это классика жанра ужасов. Один из популярнейших фильмов второй половины 80-х и начала 90-х годов. Интересно, старик может быть клоном подростка?

Может если это ремейк.
------------------------------------
И по теме - Привычный Даглас Брэдли не заменит уже никто. Да и автор сценария и режиссёр Клайва Баркери говорит о том, что атмосфера,динамика фильма будет отличаться от классики. Хочу посмотреть, но , что - то отталкивает. Думаю то, что я перечислил и разочарования в бюджете и в внимания. Как соберусь обязательно посмотрю. Всем приятного просмотра )pb.wtf



    Дорогой пользователь! Огромная просьба, поблагодарите релизера, оцените раздачу и оставьте свои комментарий, если Вы скачали Восставший из ада 10: Приговор через торрент бесплатно! Внесите свою лепту в развитие PiratBit!
    Комментировать посты могут только пользователи прошедшие не сложную регистрацию
    Показать сообщения:    

    Восставший из ада 10: Приговор через торрент
    Скачать бесплатно Восставший из ада 10: Приговор
    Восставший из ада 10: Приговор скачать торрент
    Восставший из ада 10: Приговор смотреть онлайн
    Cкачать фильм Восставший из ада 10: Приговор бесплатно
    Восставший из ада 10: Приговор скачать торрент в хорошем качестве
    Восставший из ада 10: Приговор смотреть онлайн бесплатно в хорошем качестве


    Вы не можете начинать темы
    Вы не можете отвечать на сообщения
    Вы не можете редактировать свои сообщения
    Вы не можете удалять свои сообщения
    Вы не можете голосовать в опросах
    Вы не можете прикреплять файлы к сообщениям
    Вы можете скачивать файлы