Ссылка на приватное зеркало нашего сайта всего за 1$. Внимание количество ограничено!!!

2 сезон

iTunes

1 сезон

1

2 сезон

2 сезон

iTunes

1 сезон

RePack

30

Ultimate

ВАЖНО

ИГРА 18+

pack

RePack

MK11
pack

Забери бонус

RePack

jed

!!Акция!!

Alien_Rage

RePack

fifa19

RePack

Assassins Creed: Odyssey

RePack

NEED FOR SPEED™ PAYBACK

4 сезон

9 сезон

Бесстыжие 9 сезон

Все сериалы

все сериалы на PB.wtf

RePack

FAR CRY 5
  

Бельвью / Bellevue / Сезон: 1 / Серии: 1-8 из 8 (Эдриэнн Митчелл, Ким Нгуйен, Эйприл Маллен) [2017, триллер, драма, детектив, мистика, WEB-DLRip] MVO [Jaskier] pb.wtf

Бельвью через торрент pb.wtf

Размер: 4.35 GB | Добавлен: 2 года 9 мес. назад | Торрент скачан:28 раз
Скачать  

27-02-2018 01:58 Бельвью Скачать торрент  

Бельвью / Bellevue Год выпуска: 2017
Страна: Канада
Студия: Back Alley Film Productions, Muse Entertainment Enterprises
Жанр: триллер, драма, детектив, мистика
Продолжительность: ~ 00:45:00
Перевод: Профессиональный (многоголосый) - студия Jaskier
Субтитры: отсутствуют
Присутствует аудио-реклама

Режиссер: Эдриэнн Митчелл, Ким Нгуйен, Эйприл Маллен

rating

В ролях:

Анна Пэкуин, Шон Дойл, Билли Маклеллан, Шэрон Тейлор, Жанин Терио, Аллен Лич, Мэдисон Фергюсон, Эмбер Гольдфарб, Патрик Лаббе, Сэди О Нил и др.

Описание:

Энни Райдер — детектив небольшого городка, который нередко сотрясают различные преступления. Девушка находит интересные связи с делом о похищении подростка-трансгендера, несмотря на то, что оно уже не первый раз заходит в тупик. Вскоре она начинает догадываться о том, что именно происходит в городе. И понимает, что похищенного могут ждать самые печальные последствия…?

Качество: WEB-DLRip
Формат: AVI
Видео кодек: XviD
Аудио кодек: MP3

Видео: ~ 1500 kbps, 720x400, 23.976 fps
Аудио#1 Rus: mp3, 48 KHz, 2 ch, 128 kbps
Аудио#2 Eng: mp3, 48 KHz, 2 ch, 128 kbps


скриншот   скриншот   скриншот  

Общее
Полное имя : D:\Bellevue. Season 1 (WEB-DLRip l 400p l Jaskier)\Bellevue.S01E01.WEB-DLRip.Rus.Eng.Jaskier.avi
Формат : AVI
Формат/Информация : Audio Video Interleave
Размер файла : 550 Мбайт
Продолжительность : 43 м. 55 с.
Общий поток : 1752 Кбит/сек
Программа кодирования : VirtualDubMod 1.5.10.3 | www.virtualdub-fr.org || (build 2550/release)
Библиотека кодирования : VirtualDubMod build 2550/release

Видео
Идентификатор : 0
Формат : MPEG-4 Visual
Профиль формата : Advanced Simple@L5
Параметр BVOP формата : 1
Параметр QPel формата : Нет
Параметр GMC формата : Без точки перехода
Параметр матрицы формата : Default (MPEG)
Идентификатор кодека : XVID
Идентификатор кодека/Подсказка : XviD
Продолжительность : 43 м. 55 с.
Битрейт : 1482 Кбит/сек
Ширина : 720 пикселей
Высота : 400 пикселей
Соотношение сторон : 16:9
Частота кадров : 23,976 (23976/1000) кадра/сек
Цветовое пространство : YUV
Субдискретизация насыщенности : 4:2:0
Битовая глубина : 8 бит
Тип развёртки : Прогрессивная
Метод сжатия : С потерями
Бит/(Пиксели*Кадры) : 0.215
Размер потока : 465 Мбайт (85%)
Библиотека кодирования : XviD 73

Аудио #1
Идентификатор : 1
Формат : MPEG Audio
Версия формата : Version 1
Профиль формата : Layer 3
Режим : Joint stereo
Расширение режима : MS Stereo
Идентификатор кодека : 55
Идентификатор кодека/Подсказка : MP3
Продолжительность : 43 м. 55 с.
Вид битрейта : Постоянный
Битрейт : 128 Кбит/сек
Каналы : 2 канала
Частота : 48,0 КГц
Метод сжатия : С потерями
Размер потока : 40,2 Мбайт (7%)
Выравнивание : Соединение по промежуткам
Продолжительность промежутка : 42 мс. (1,00 видеокадр)
Время предзагрузки промежутка : 504 мс.

Аудио #2
Идентификатор : 2
Формат : MPEG Audio
Версия формата : Version 1
Профиль формата : Layer 3
Режим : Joint stereo
Расширение режима : MS Stereo
Идентификатор кодека : 55
Идентификатор кодека/Подсказка : MP3
Продолжительность : 43 м. 55 с.
Вид битрейта : Постоянный
Битрейт : 128 Кбит/сек
Каналы : 2 канала
Частота : 48,0 КГц
Метод сжатия : С потерями
Размер потока : 40,2 Мбайт (7%)
Выравнивание : Соединение по промежуткам
Продолжительность промежутка : 42 мс. (1,00 видеокадр)
Время предзагрузки промежутка : 504 мс.

Внимание! Раздача ведётся путём добавления новых серий; при каждом добавлении создаётся новый торрент. Чтобы начать докачку новой серии, пользователям необходимо сделать следующее:
(1) остановить скачивание,
(2) удалить старый торрент у себя из клиента (старые серии удалять не надо),
(3) скачать новый торрент и запустить его у себя в клиенте вместо старого, при этом указать клиенту путь в старую папку куда и должно происходить скачивание новых серий.
Ваш клиент при этом должен произвести хеширование (проверку) старой папки (если не производит сам - помогите ему сделать это), и будет докачивать только те серии которых у вас ещё нет. Старые серии при этом не удаляются, а продолжают раздаваться!
Eсли вы уже удалили старые серии, то предотвратить повторную закачку старых серий можно, отжав галочку в соответствующих местах при запуске нового торрента. По возможности, желательно не удалять старые серии как можно дольше чтобы релизёр не столько продолжал раздавать старые серии, а смог сконцентрироваться на новых.
pb.wtf



Скачать Бельвью через торрент http://i103.fastpic.ru/big/2018/0211/a7/596fbbf212c71f8758ff25c62e2c42a7.jpg Скачать фильм Бельвью через торрент бесплантно в хорошем качестве Описание: Энни Райдер — детектив небольшого городка, который нередко сотрясают различные преступления. Девушка находит интересные связи с ... 10 10 4
Торрент: Зарегистрирован [2018-02-28 21:50] · скачан: 28 раз
Статус: √ проверено
Размер: 4.35 GB
Как cкачать? Как скачать Бельвью через торрент | qTorrent

% Раздел Тема Автор DL S | L
Зарубежные сериалы [ 27.12 GB ] Бельвю / Белвью / Bellevue / Сезон: 1 / Серии: 1-8 из 8 [2017 BDRip 1080p] [MVO] killermax2013 Скачать
1 | 0
Зарубежные сериалы [ 11.92 GB ] Бельвью / Bellevue / Сезон: 1 / Серии: 1-8 из 8 [2017 WEB-DL 720p] MVO [Jaskier] bober100 Скачать
1 | 0
Зарубежные сериалы [ 11.92 GB ] Бельвью / Bellevue / Сезон 1 / Серии 1-8 из 8 [2017 WEB-DL 720p] [MVO] killermax2013 Скачать
1 | 0

28-11-2019 20:33  

Отключить всю рекламу на сайте

    Дорогой пользователь! Огромная просьба, поблагодарите релизера, оцените раздачу и оставьте свои комментарий, если Вы скачали Бельвью через торрент бесплатно! Внесите свою лепту в развитие PiratBit!
    Комментировать посты могут только пользователи прошедшие не сложную регистрацию
    Показать сообщения:    

    Бельвью через торрент
    Скачать бесплатно Бельвью
    Бельвью скачать торрент
    Бельвью смотреть онлайн
    Cкачать фильм Бельвью бесплатно
    Бельвью скачать торрент в хорошем качестве
    Бельвью смотреть онлайн бесплатно в хорошем качестве


    Вы не можете начинать темы
    Вы не можете отвечать на сообщения
    Вы не можете редактировать свои сообщения
    Вы не можете удалять свои сообщения
    Вы не можете голосовать в опросах
    Вы не можете прикреплять файлы к сообщениям
    Вы можете скачивать файлы