Доктор Стрэндж

Лицензия

Добыча

MVO

Дом дракона

1 сезон

Тор

Лицензия

Мэверик

Лицензия

Там, где раки поют

MVO

Властелин колец

1 сезон

Ultimate

pack

Рекомендуем

30

Repack

ВАЖНО

ВАЖНО

Ghostwire

RePack

jed

RePack

nioh2

RePack

RDR2

RePack

NEED FOR SPEED™ PAYBACK

RePack

скачать торрент

Кинопоиск HD

Острые козырьки 6 сезон

6 сезон

FAR CRY 6

RePack

скачать торрент

Лицензия

скачать торрент

MVO

1

1 сезон

скачать торрент

1 сезон

скачать торрент

Лицензия

  

Дни Власти / Days of Power (Джейсон Пагнони) [2017, боевик, триллер, драма, музыка, BDRip 720p] MVO ["Синема УС"]

Дни Власти через торрент pb.wtf

Размер: 4.65 GB | Добавлен: 4 года 7 мес. назад | Торрент скачан:7 раз
Смотреть онлайн Дни Власти | Скачать   

27-02-2018 06:44 Дни Власти Скачать торрент  

Дни Власти / Days of PowerГод выпуска: 2017
Страна: США
Жанр: боевик, триллер, драма, музыка
Продолжительность: 01:43:29
Перевод: Любительский (многоголосый) ["Синема УС"]
Субтитры: отсутствуют

Режиссер: Джейсон Пагнони

rating

В ролях:

Эрик Робертс, Элайза Робертс, Дженни Хаттон, Роберт Венейбл, Алисса Ли Льюис, Лара Вольф, Эмили Норсиа, Доминик Райан Гэбриел, Китон Саймонс, Пол Льюис

Описание:

Во время тура 2010-го года всемирно известная поп-звезда вместе с участниками своей группы загадочным образом исчезают. Пока прошлое и настоящее сливаются вместе, они ищут ответы и борятся, чтобы спасти свои жизни и не только, пока раскрывается обратная сторона индустрии.

Качество: BDRip 720p
Формат: MKV
Видео кодек: H.264
Аудио кодек: AC3

Видео: 5988 Кбит/с, 1280x536
Аудио#1: Русский, (AC3, 2 ch, 448 Кбит/с)
скриншот  скриншот  скриншот  

Общее
Уникальный идентификатор : 249539050180452081342834442117434111802 (0xBBBB791036A71054B8D3730E3F80F73A)
Полное имя : D:\Days.Of.Power.2018.P.BDRip.72Op_KOSHARA.mkv
Формат : Matroska
Версия формата : Version 2
Размер файла : 4,65 Гбайт
Продолжительность : 1 ч. 43 м.
Режим общего битрейта : Переменный
Общий поток : 6438 Кбит/сек
Дата кодирования : UTC 2018-02-26 15:54:19
Программа кодирования : mkvmerge v8.3.0 ('Over the Horizon') 64bit
Библиотека кодирования : libebml v1.3.1 + libmatroska v1.4.2

Видео
Идентификатор : 1
Формат : AVC
Формат/Информация : Advanced Video Codec
Профиль формата : [email protected]
Параметр CABAC формата : Да
Параметр ReFrames формата : 4 кадра
Идентификатор кодека : V_MPEG4/ISO/AVC
Продолжительность : 1 ч. 43 м.
Вид битрейта : Переменный
Битрейт : 5988 Кбит/сек
Максимальный битрейт : 6700 Кбит/сек
Ширина : 1280 пикселей
Высота : 536 пикселей
Соотношение сторон : 2,40:1
Режим частоты кадров : Постоянный
Частота кадров : 23,976 (24000/1001) кадра/сек
Стандарт вещания : Component
Цветовое пространство : YUV
Субдискретизация насыщенности : 4:2:0
Битовая глубина : 8 бит
Тип развёртки : Прогрессивная
Бит/(Пиксели*Кадры) : 0.356
Размер потока : 4,24 Гбайт (91%)
Default : Да
Forced : Нет
Цветовой диапазон : Limited
Основные цвета : BT.709
Характеристики трансфера : BT.709
Коэффициенты матрицы : BT.709

Аудио
Идентификатор : 2
Формат : AC-3
Формат/Информация : Audio Coding 3
Расширение режима : CM (complete main)
Параметр Endianness формата : Big
Идентификатор кодека : A_AC3
Продолжительность : 1 ч. 43 м.
Вид битрейта : Постоянный
Битрейт : 448 Кбит/сек
Каналы : 2 канала
Расположение каналов : Front: L R
Частота : 48,0 КГц
Частота кадров : 31,250 кадров/сек (1536 spf)
Метод сжатия : С потерями
Размер потока : 332 Мбайт (7%)
Default : Да
Forced : Нет




Скачать Дни Власти через торрент http://img12.lostpic.net/2018/02/27/18f2f1b30dc818b349db8b91bab15c9a.jpg Скачать, смотреть онлайн Дни Власти бесплантно в хорошем качестве Описание: Во время тура 2010-го года всемирно известная поп-звезда вместе с участниками своей группы загадочным образом исчезают. Пока ... 5.5 10 4
Торрент: Зарегистрирован [2018-02-27 06:44] · скачан: 7 раз
Статус: # сомнительно
Размер: 4.65 GB
Как cкачать? Как скачать Дни Власти через торрент | UTorrent

% Раздел Тема Автор DL S | L
T Фильмы (мультфильмы) cо спонсором показа (Новинки AVI/MKV) [ 1.37 GB ] Дни Власти / Days of Power | MVO | HDRip bober100 Скачать
1 | 0

28-11-2019 20:33  

Отключить вcю реклaмy на сайте

    Дорогой пользователь! Огромная просьба, поблагодарите релизера, оцените раздачу и оставьте свои комментарий, если Вы скачали Дни Власти через торрент бесплатно!!
    Комментировать посты могут только пользователи прошедшие не сложную регистрацию
    Показать сообщения:    


    Дни Власти через торрент
    Скачать бесплатно Дни Власти
    Дни Власти скачать торрент
    Дни Власти смотреть онлайн
    Cкачать фильм Дни Власти бесплатно
    Дни Власти скачать торрент в хорошем качестве
    Дни Власти смотреть онлайн бесплатно в хорошем качестве
    Вы не можете начинать темы
    Вы не можете отвечать на сообщения
    Вы не можете редактировать свои сообщения
    Вы не можете удалять свои сообщения
    Вы не можете голосовать в опросах
    Вы не можете прикреплять файлы к сообщениям
    Вы можете скачивать файлы