Ссылка на приватное зеркало нашего сайта всего за 1$. Внимание количество ограничено!!!

2 сезон

iTunes

1 сезон

1

2 сезон

2 сезон

iTunes

1 сезон

RePack

30

Ultimate

ВАЖНО

ИГРА 18+

pack

RePack

MK11
pack

Забери бонус

RePack

jed

!!Акция!!

Alien_Rage

RePack

fifa19

RePack

Assassins Creed: Odyssey

RePack

NEED FOR SPEED™ PAYBACK

4 сезон

9 сезон

Бесстыжие 9 сезон

Все сериалы

все сериалы на PB.wtf

RePack

FAR CRY 5
  

Три процента / 3% / Сезон: 1 / Серии: 1-8 из 8 (Джотага Крема, Дайна Гианеэчине, Дани Либарди, Сезар Шарлони) [2016, Фантастика, триллер, WEBRip] MVO [BaibaKo] pb.wtf

Три процента через торрент pb.wtf

Размер: 7.23 GB | Добавлен: 2 года 8 мес. назад | Торрент скачан:133 раза
Скачать  

27-02-2018 08:27 Три процента Скачать торрент  

Три процента / 3%Год выпуска: 2016
Страна: Бразилия
Жанр: Фантастика, триллер
Продолжительность: ~ 00:48:00
Перевод: Профессиональный многоголосый -
Субтитры: отсутствуют

Режиссер: Джотага Крема, Дайна Гианеэчине, Дани Либарди, Сезар Шарлони

rating

В ролях:

Бьянка Компрату, Мэл Фронковиак, Мишель Гомес, Рафаэль Лозаньо, Джоао Мигель, Вивиан Порто, Родольфо Валенте

Описание:

Будущее оказывается не таким уж и безоблачным, как многим кажется. Мир совершенно меняется. Сложно себе представить, на что человечество способно в будущем. Однако впереди нас ждет все самое худшее. Когда-то мечты о равенстве стояли во главе вектора развития. Сейчас же они разрушена о скалы нового мировоззрения. Мир будто бы разделился на две части. Одни люди должны быть богатыми, а другие — нищими. Что же делать? Как быть? Каждого человека ждет непростой естественный отбор, где и определится дальнейшая судьба человека. Ему дают шанс, несмотря ни на что! Однако все ли этим шансом захотят воспользоваться?

Качество: WEBRip | рекламы нет
Формат: AVI

Видео: 720x400 (1.80:1), 23.976 fps, XviD build 50 ~2117 kbps avg, 0.29 bit/pixel
Аудио#1: Rus: AC3, 6 ch, 384 kbps
Аудио#2: Eng: AC3, 6 ch, 384 kbps
скриншот   скриншот   скриншот   скриншот   скриншот   скриншот  

Общее
Полное имя : D:\3%\3%.s01e01.BaibaKo.avi
Формат : AVI
Формат/Информация : Audio Video Interleave
Размер файла : 1006 Мбайт
Продолжительность : 49 м. 40 с.
Общий поток : 2833 Кбит/сек
Программа кодирования : VirtualDubMod 1.5.10.2 (build 2540/release)
Библиотека кодирования : VirtualDubMod build 2540/release

Видео
Идентификатор : 0
Формат : MPEG-4 Visual
Профиль формата : Advanced Simple@L5
Параметр BVOP формата : 1
Параметр QPel формата : Нет
Параметр GMC формата : Без точки перехода
Параметр матрицы формата : Default (MPEG)
Идентификатор кодека : XVID
Идентификатор кодека/Подсказка : XviD
Продолжительность : 49 м. 40 с.
Битрейт : 2051 Кбит/сек
Ширина : 720 пикселей
Высота : 400 пикселей
Соотношение сторон : 16:9
Частота кадров : 23,976 (23976/1000) кадра/сек
Цветовое пространство : YUV
Субдискретизация насыщенности : 4:2:0
Битовая глубина : 8 бит
Тип развёртки : Прогрессивная
Метод сжатия : С потерями
Бит/(Пиксели*Кадры) : 0.297
Размер потока : 729 Мбайт (72%)
Библиотека кодирования : XviD 1.2.1 (UTC 2008-12-04)

Аудио #1
Идентификатор : 1
Формат : AC-3
Формат/Информация : Audio Coding 3
Расширение режима : CM (complete main)
Параметр Endianness формата : Big
Идентификатор кодека : 2000
Продолжительность : 49 м. 40 с.
Вид битрейта : Постоянный
Битрейт : 384 Кбит/сек
Каналы : 6 каналов
Расположение каналов : Front: L C R, Side: L R, LFE
Частота : 48,0 КГц
Частота кадров : 31,250 кадров/сек (1536 spf)
Метод сжатия : С потерями
Размер потока : 136 Мбайт (14%)
Выравнивание : Разделение по промежуткам
Продолжительность промежутка : 42 мс. (1,00 видеокадр)
Время предзагрузки промежутка : 500 мс.

Аудио #2
Идентификатор : 2
Формат : AC-3
Формат/Информация : Audio Coding 3
Расширение режима : CM (complete main)
Параметр Endianness формата : Big
Идентификатор кодека : 2000
Продолжительность : 49 м. 40 с.
Вид битрейта : Постоянный
Битрейт : 384 Кбит/сек
Каналы : 6 каналов
Расположение каналов : Front: L C R, Side: L R, LFE
Частота : 48,0 КГц
Частота кадров : 31,250 кадров/сек (1536 spf)
Метод сжатия : С потерями
Размер потока : 136 Мбайт (14%)
Выравнивание : Разделение по промежуткам
Продолжительность промежутка : 42 мс. (1,00 видеокадр)
Время предзагрузки промежутка : 500 мс.

pb.wtf



Скачать Три процента через торрент http://img12.lostpic.net/2018/02/27/9a465713140884cfed76b87b5fddee8a.jpg Скачать фильм Три процента через торрент бесплантно в хорошем качестве Описание: Будущее оказывается не таким уж и безоблачным, как многим кажется. Мир совершенно меняется. Сложно себе представить, на что ... 7.3 10 4
Info! Серебряная раздача, засчитывается только 50% скачанного.
Торрент: Зарегистрирован [2018-02-27 08:27] · скачан: 133 раз
Статус: √ проверено
Размер: 7.23 GB
Как cкачать? Как скачать Три процента через торрент | qTorrent

% Раздел Тема Автор DL S | L
Зарубежные сериалы [ 9.74 GB ] Три процента / 3% / Сезон 1 / Серии 1-8 из 8 [2016 Бразилия WEBRip 720p] MVO [BaibaKo]+ Original Dusster Скачать
1 | 0
Зарубежные сериалы [ 6.66 GB ] Три процента / 3% / Сезон 1 / Серии 1-8 из 8 [2016 Бразилия WEBRip-AVC] MVO [BaibaKo] GEKADOL Скачать
1 | 1

28-11-2019 20:33  

Отключить всю рекламу на сайте

01-03-2018 09:43 Три процента Скачать торрент  

можно, посмотреть, но не шедеврpb.wtf



    Дорогой пользователь! Огромная просьба, поблагодарите релизера, оцените раздачу и оставьте свои комментарий, если Вы скачали Три процента через торрент бесплатно! Внесите свою лепту в развитие PiratBit!
    Комментировать посты могут только пользователи прошедшие не сложную регистрацию
    Показать сообщения:    

    Три процента через торрент
    Скачать бесплатно Три процента
    Три процента скачать торрент
    Три процента смотреть онлайн
    Cкачать фильм Три процента бесплатно
    Три процента скачать торрент в хорошем качестве
    Три процента смотреть онлайн бесплатно в хорошем качестве


    Вы не можете начинать темы
    Вы не можете отвечать на сообщения
    Вы не можете редактировать свои сообщения
    Вы не можете удалять свои сообщения
    Вы не можете голосовать в опросах
    Вы не можете прикреплять файлы к сообщениям
    Вы можете скачивать файлы