Всегда рабочее зеркало просто перед .vidak.icu напиши любое слово или цифру, Пример http://a1a.vidak.icu

>

7.4

iTunes

7.4

2 сезон

9.4

1 сезон

1

7.4

2 сезон

7.2

iTunes

6.0

MVO

13

6.1

iTunes

8.3

Пиратка

30

ULTIMATE

pack

9.9

Лицензия

ВАЖНО

ИГРА 18+

pack

7.3

RePack

MK11

7.7

RePack

jed

7.8

RePack

fifa19

8.5

RePack

RDR2

RePack

NEED FOR SPEED™ PAYBACK

1 сезон

9 сезон

Бесстыжие 9 сезон

Все сериалы

все сериалы на PB.wtf

RePack

FAR CRY 5

Anonymous, доброй ночи, мы катастрофически не успеваем собрать деньги на оплату серверов, помогите нам пожалуйста 5,10,15р., для нас важна любая помощь . В качестве благодарности мы отключим Вам всю рекламу на сайте (укажите свой ник в строку Ваше имя)!

×
  
Magnet ссылка

Похождения Дореллика / Arrriva Dorellik (Стено) [1967 г., Комедия, DVDRip-AVC, Авторский (одноголосый)] от ExKinoRay pb.wtf

Похождения Дореллика через торрент pb.wtf

Размер: 2.28 GB | Добавлен: 3 года 10 мес. назад | Торрент скачан:6 раз
Смотреть онлайн Похождения Дореллика | Скачать    Ребята, помогите собрать деньги на оплату серверов!!!

27-02-2018 16:26 Похождения Дореллика Скачать торрент  

Похождения Дореллика / Arrriva Dorellik
Год выпуска: 1967
Страна: Италия
Жанр: Комедия
Продолжительность: 01:29:37
Перевод: Авторский (одноголосый)

Режиссер: Стено

Премьера в мире: 1 октября 1967

rating

В ролях: Джонни Дорелли, Маргарет Ли, Альфред Адам, Жан-Пьер Золя, Росселла Комо, Риккардо Гарроне, Пьеро Герлини, Агата Флори, Диди Перего, Терри-Томас

Описание: Известный преступник Дореллик, должен выполнить работу по убийству Всех людей по фамилии Дюпон, кроме одного человека (заказчика убийств), претендующего на почетное место наследника Огромного состояния. Комиссар Скотланд-Ярда и его помощники, пытающиеся поймать Дореллика, взялись за дело, чтобы схватить наконец преступника, которому до сего момента удавалось от них ускользнуть.

Доп. информация: Перевод: Авторский (Вячеслав Котов)

Качество: DVDRip-AVC
Формат: MKV
Видео кодек: MPEG4
Аудио кодек: AC3
Видео: MPEG-4 AVC, 3000 Кбит/с, 718x546@1020x546, 25 кадров/сек
Аудио#1: Русский (AC3, 6 ch, 448 Кбит/с, 48 КГц) - Вячеслав Котов
Аудио#2: Итальянский (AC3, 2 ch, 192 Кбит/с, 48 КГц)
Релиз от:




raw [info]: 718x546p 64:45 @ 25/1 fps (cfr)
x264 [info]: using SAR=64/45
x264 [info]: using cpu capabilities: MMX2 SSE2Fast LZCNT
x264 [info]: profile High, level 4.1
x264 [info]: frame I:900 Avg QP:17.92 size: 65430
x264 [info]: frame P:26400 Avg QP:20.34 size: 30527
x264 [info]: frame B:107136 Avg QP:22.58 size: 10752
x264 [info]: consecutive B-frames: 1.3% 1.5% 8.0% 7.3% 4.7% 75.6% 0.8% 0.2% 0.1% 0.0% 0.1% 0.2% 0.0% 0.0% 0.0% 0.0% 0.0%
-----
Общее
Уникальный идентификатор : 192404714784765373554761512214258391215 (0x90BFCCD79518CD518534A527B98618AF)
Полное имя : D:\ExKinoRay\Arrriva.Dorellik.1967.DVDRip-AVC.ExKinoRay.mkv
Формат : Matroska
Версия формата : Version 2
Размер файла : 2,28 Гбайт
Продолжительность : 1 ч. 29 м.
Общий поток : 3642 Кбит/сек
Дата кодирования : UTC 2018-02-27 13:36:52
Программа кодирования : mkvmerge v7.8.0 ('River Man') 32bit built on Apr 3 2015 12:11:22
Библиотека кодирования : libebml v1.3.1 + libmatroska v1.4.2

Видео
Идентификатор : 1
Формат : AVC
Формат/Информация : Advanced Video Codec
Профиль формата : High@L4.1
Параметр CABAC формата : Да
Параметр ReFrames формата : 14 кадров
Идентификатор кодека : V_MPEG4/ISO/AVC
Продолжительность : 1 ч. 29 м.
Битрейт : 3000 Кбит/сек
Ширина : 718 пикселей
Высота : 546 пикселей
Соотношение сторон : 1,85:1
Режим частоты кадров : Постоянный
Частота кадров : 25,000 кадров/сек
Цветовое пространство : YUV
Субдискретизация насыщенности : 4:2:0
Битовая глубина : 8 бит
Тип развёртки : Прогрессивная
Бит/(Пиксели*Кадры) : 0.306
Размер потока : 1,83 Гбайт (80%)
Библиотека кодирования : x264 core 148 r2638 7599210
Настройки программы : cabac=1 / ref=14 / deblock=1:-2:-2 / analyse=0x3:0x133 / me=umh / subme=10 / psy=1 / psy_rd=1.05:0.15 / mixed_ref=1 / me_range=32 / chroma_me=1 / trellis=2 / 8x8dct=1 / cqm=0 / deadzone=21,11 / fast_pskip=0 / chroma_qp_offset=-3 / threads=4 / lookahead_threads=1 / sliced_threads=0 / nr=0 / decimate=0 / interlaced=0 / bluray_compat=0 / constrained_intra=0 / bframes=16 / b_pyramid=2 / b_adapt=2 / b_bias=0 / direct=3 / weightb=1 / open_gop=0 / weightp=2 / keyint=250 / keyint_min=25 / scenecut=40 / intra_refresh=0 / rc=2pass / mbtree=0 / bitrate=3000 / ratetol=1.0 / qcomp=0.60 / qpmin=0 / qpmax=69 / qpstep=4 / cplxblur=20.0 / qblur=0.5 / ip_ratio=1.40 / pb_ratio=1.30 / aq=1:1.00
Язык : English
Default : Да
Forced : Нет
Цветовой диапазон : Limited
Основные цвета : BT.601 NTSC
Характеристики трансфера : BT.601
Коэффициенты матрицы : BT.601

Аудио #1
Идентификатор : 2
Формат : AC-3
Формат/Информация : Audio Coding 3
Расширение режима : CM (complete main)
Параметр Endianness формата : Big
Идентификатор кодека : A_AC3
Продолжительность : 1 ч. 29 м.
Вид битрейта : Постоянный
Битрейт : 448 Кбит/сек
Каналы : 6 каналов
Расположение каналов : Front: L C R, Side: L R, LFE
Частота : 48,0 КГц
Частота кадров : 31,250 кадров/сек (1536 spf)
Метод сжатия : С потерями
Размер потока : 287 Мбайт (12%)
Заголовок : Вячеслав Котов
Язык : Russian
Default : Да
Forced : Нет

Аудио #2
Идентификатор : 3
Формат : AC-3
Формат/Информация : Audio Coding 3
Расширение режима : CM (complete main)
Параметр Endianness формата : Big
Идентификатор кодека : A_AC3
Продолжительность : 1 ч. 29 м.
Вид битрейта : Постоянный
Битрейт : 192 Кбит/сек
Каналы : 2 канала
Расположение каналов : Front: L R
Частота : 48,0 КГц
Частота кадров : 31,250 кадров/сек (1536 spf)
Метод сжатия : С потерями
Размер потока : 123 Мбайт (5%)
Язык : Italian
Default : Нет
Forced : Нет

pb.wtf



Скачать Похождения Дореллика через торрент http://a.radikal.ru/a01/1802/09/d78c25a9801e.jpg Скачать, смотреть онлайн Похождения Дореллика бесплантно в хорошем качестве Описание: Известный преступник Дореллик, должен выполнить работу по убийству Всех людей по фамилии Дюпон, кроме одного человека (заказчика ... 10 10 2
Info! Золотая раздача, скачанное не засчитывается.
Торрент: Зарегистрирован [2018-02-27 16:26] · скачан: 6 раз
Статус: √ проверено
Размер: 2.28 GB
Как cкачать? Как скачать Похождения Дореллика через торрент | UTorrent

28-11-2019 20:33  

Отключить всю рекламу на сайте

27-02-2018 17:35 Похождения Дореллика Скачать торрент  

Топик был перенесен из форума Оформление раздач (Кино, Видео и ТВ) в форум Фильмы с авторской озвучкой


-Lexx-pb.wtf



    Дорогой пользователь! Огромная просьба, поблагодарите релизера, оцените раздачу и оставьте свои комментарий, если Вы скачали Похождения Дореллика через торрент бесплатно!
    Комментировать посты могут только пользователи прошедшие не сложную регистрацию
    Показать сообщения:    

    Похождения Дореллика через торрент
    Скачать бесплатно Похождения Дореллика
    Похождения Дореллика скачать торрент
    Похождения Дореллика смотреть онлайн
    Cкачать фильм Похождения Дореллика бесплатно
    Похождения Дореллика скачать торрент в хорошем качестве
    Похождения Дореллика смотреть онлайн бесплатно в хорошем качестве


    Вы не можете начинать темы
    Вы не можете отвечать на сообщения
    Вы не можете редактировать свои сообщения
    Вы не можете удалять свои сообщения
    Вы не можете голосовать в опросах
    Вы не можете прикреплять файлы к сообщениям
    Вы можете скачивать файлы