Доктор Стрэндж

Лицензия

Добыча

MVO

Дом дракона

1 сезон

Тор

Лицензия

Мэверик

Лицензия

Там, где раки поют

MVO

Властелин колец

1 сезон

Ultimate

pack

Рекомендуем

30

Repack

ВАЖНО

ВАЖНО

Ghostwire

RePack

jed

RePack

nioh2

RePack

RDR2

RePack

NEED FOR SPEED™ PAYBACK

RePack

скачать торрент

Кинопоиск HD

Острые козырьки 6 сезон

6 сезон

FAR CRY 6

RePack

скачать торрент

Лицензия

скачать торрент

MVO

1

1 сезон

скачать торрент

1 сезон

скачать торрент

Лицензия

  

За честь / Honor Up (Дэймон Дэш) [2018, боевик, приключения, WEB-DL 720p] MVO ["Синема УС"]

За честь через торрент pb.wtf

Размер: 2.91 GB | Добавлен: 4 года 7 мес. назад | Торрент скачан:48 раз
Смотреть онлайн За честь | Скачать   

27-02-2018 19:41 За честь Скачать торрент  

За честь / Honor UpГод выпуска: 2018
Страна: США
Жанр: боевик, приключения
Продолжительность: 01:26:18
Перевод: Любительский (многоголосый) ["Синема УС"]
Субтитры: отсутствуют

Режиссер: Дэймон Дэш

rating

В ролях:

Джей Блэк, Эйшиа Брайтвелл, Камрон, Дэймон Дэш, Стейси Дэш, Аль-До, Франчайзинг, Йитон Грин, Ракель Хорн

Описание:

Действие фильма разворачивается в Гарлеме, Нью Йорк. Крупный наркобарон пытается защитить свою криминальную семью и собственную честь после участия в перестрелке, которая произошла совсем не по плану.

Качество: WEB-DL 720p
Формат: MKV

Видео: MPEG-4 AVC, 4434 kb/s, 1280x542
Аудио#1: Русский (AC3, 2 ch, 384 Кбит/с)
скриншот  скриншот  скриншот  

Общее
Уникальный идентификатор : 174287559808351882486058693104331781593 (0x831E90232FD4F4F28C627B7DCC8DF5D9)
Полное имя : D:\Honor.Up.2018.P.WEB-DL.72Op_KOSHARA.mkv
Формат : Matroska
Версия формата : Version 2
Размер файла : 2,91 Гбайт
Продолжительность : 1 ч. 26 м.
Режим общего битрейта : Переменный
Общий поток : 4820 Кбит/сек
Дата кодирования : UTC 2018-02-27 12:03:40
Программа кодирования : mkvmerge v8.3.0 ('Over the Horizon') 64bit
Библиотека кодирования : libebml v1.3.1 + libmatroska v1.4.2

Видео
Идентификатор : 1
Формат : AVC
Формат/Информация : Advanced Video Codec
Профиль формата : [email protected]
Параметр CABAC формата : Да
Параметр ReFrames формата : 4 кадра
Идентификатор кодека : V_MPEG4/ISO/AVC
Продолжительность : 1 ч. 26 м.
Вид битрейта : Переменный
Битрейт : 4434 Кбит/сек
Максимальный битрейт : 5000 Кбит/сек
Ширина : 1280 пикселей
Высота : 542 пикселя
Соотношение сторон : 2,35:1
Режим частоты кадров : Постоянный
Частота кадров : 23,976 (24000/1001) кадра/сек
Стандарт вещания : Component
Цветовое пространство : YUV
Субдискретизация насыщенности : 4:2:0
Битовая глубина : 8 бит
Тип развёртки : Прогрессивная
Бит/(Пиксели*Кадры) : 0.261
Размер потока : 2,62 Гбайт (90%)
Default : Да
Forced : Нет
Цветовой диапазон : Limited
Основные цвета : BT.709
Характеристики трансфера : BT.709
Коэффициенты матрицы : BT.709

Аудио
Идентификатор : 2
Формат : AC-3
Формат/Информация : Audio Coding 3
Расширение режима : CM (complete main)
Параметр Endianness формата : Big
Идентификатор кодека : A_AC3
Продолжительность : 1 ч. 26 м.
Вид битрейта : Постоянный
Битрейт : 384 Кбит/сек
Каналы : 2 канала
Расположение каналов : Front: L R
Частота : 48,0 КГц
Частота кадров : 31,250 кадров/сек (1536 spf)
Метод сжатия : С потерями
Размер потока : 237 Мбайт (8%)
Default : Да
Forced : Нет




Скачать За честь через торрент http://img12.lostpic.net/2018/02/27/3488639331f10cf1df7bd4d2261907fe.jpg Скачать, смотреть онлайн За честь бесплантно в хорошем качестве Описание: Действие фильма разворачивается в Гарлеме, Нью Йорк. Крупный наркобарон пытается защитить свою криминальную семью и собственную ... 7 10 3
Торрент: Зарегистрирован [2018-02-27 19:41] · скачан: 48 раз
Статус: T временная
Размер: 2.91 GB
Как cкачать? Как скачать За честь через торрент | UTorrent

% Раздел Тема Автор DL S | L
T Фильмы (мультфильмы) cо спонсором показа (Новинки AVI/MKV) [ 1.37 GB ] За честь / Honor Up | MVO | DLRip bober100 Скачать
1 | 0

28-11-2019 20:33  

Отключить вcю реклaмy на сайте

    Дорогой пользователь! Огромная просьба, поблагодарите релизера, оцените раздачу и оставьте свои комментарий, если Вы скачали За честь через торрент бесплатно!!
    Комментировать посты могут только пользователи прошедшие не сложную регистрацию
    Показать сообщения:    


    За честь через торрент
    Скачать бесплатно За честь
    За честь скачать торрент
    За честь смотреть онлайн
    Cкачать фильм За честь бесплатно
    За честь скачать торрент в хорошем качестве
    За честь смотреть онлайн бесплатно в хорошем качестве
    Вы не можете начинать темы
    Вы не можете отвечать на сообщения
    Вы не можете редактировать свои сообщения
    Вы не можете удалять свои сообщения
    Вы не можете голосовать в опросах
    Вы не можете прикреплять файлы к сообщениям
    Вы можете скачивать файлы