Ссылка на приватное зеркало нашего сайта всего за 1$. Внимание количество ограничено!!!

2 сезон

iTunes

1 сезон

1

2 сезон

2 сезон

iTunes

1 сезон

RePack

30

Новинка

ВАЖНО

ИГРА 18+

pack

RePack

MK11
pack

Забери бонус

RePack

jed

!!Акция!!

Alien_Rage

RePack

fifa19

RePack

Assassins Creed: Odyssey

RePack

NEED FOR SPEED™ PAYBACK

4 сезон

9 сезон

Бесстыжие 9 сезон

Все сериалы

все сериалы на PB.wtf

RePack

FAR CRY 5
  

Я – зомби / iZombie / Сезон: 4 / Серии: 1-13 из 13 (Майкл Филдс, Майрзи Алмас, Джейсон Блум) [2018, ужасы, драма, комедия, криминал, WEB-DL 720p] MVO [BaibaKo] pb.wtf

Я – зомби через торрент pb.wtf

Размер: 18.92 GB | Добавлен: 2 года 5 мес. назад | Торрент скачан:77 раз
Скачать  

28-02-2018 08:15 Я – зомби Скачать торрент  

Я – зомби / iZombie
✦ Год выпуска: 2018
Страна: США
Жанр: ужасы, драма, комедия, криминал
Продолжительность: ~ 00:44:00
Перевод: Профессиональный многоголосый |
Субтитры: отсутствуют

Режиссер: Майкл Филдс, Майрзи Алмас, Джейсон Блум

rating

В ролях:


Роуз МакАйвер (Olivia Moore), Малкольм Гудвин (Clive Babineaux), Рахул Коли (Ravi Chakrabarti), Роберт Бакли (Major Lilywhite), Дэвид Андерс (Blaine DeBeers), Элисон Мичалка (Peyton Charles), Брайс Ходжсон (Don Everhart), Лиэнн Лэпп (Gilda), Джессика Хэрмон (Dale Bozzio), Стивен Уэбер (Vaughn Du Clark), Андре Трикоте (Chief), Грег Финли (Drake Holloway)

Описание:

В центре сюжета - студентка медицинского факультета Оливия «Лив» Мур, для которой последствия одной из вечеринок стали переломным моментом в жизни, превратившим её в зомби. Жизнерадостная, активная и пышущая здоровьем раньше, теперь Лив похожа на представителя готов - с бледной кожей, тёмными кругами вокруг глаз и почти белыми волосами. Она устраивается на работу в офис коронера, доктора Рави Чакрабарти, чтобы иметь доступ к мозгам, которые ей приходится есть, чтобы поддерживать свою человеческую сущность. Однако с каждым съеденным ею мозгом она наследует воспоминания трупа. С помощью босса доктора Чакрабарти, узнавшего её секрет, и детектива полиции Клайва Бабино Лив способна разгадывать убийства тех людей, чей мозг она съела.

Качество: WEB-DL 720p
Формат: MKV
Видео кодек: H.264
Аудио кодек: AC3

Видео: MPEG-4 AVC, ~ 4085 Кбит/с, 1280x720
Аудио#1: Русский (AC3, 6 ch, 384 Кбит/с)
Аудио#2: английский (AC3, 6 ch, 384 Кбит/с)


скриншот   скриншот   скриншот  

Общее
Уникальный идентификатор : 170432024502004016998147092896138901592 (0x80380392096C4DE2BC3BEB8D9D2FB858)
Полное имя : D:\iZombie.s04.HD720p.WEB-DL.Rus.Eng.BaibaKo.tv\iZombie.s04e01.HD720p.WEB-DL.Rus.Eng.BaibaKo.tv.mkv
Формат : Matroska
Версия формата : Version 4 / Version 2
Размер файла : 1,46 Гбайт
Продолжительность : 43 м. 6 с.
Общий поток : 4855 Кбит/сек
Дата кодирования : UTC 2018-02-27 22:14:52
Программа кодирования : mkvmerge v9.3.1 ('Mask Machine') 64bit
Библиотека кодирования : libebml v1.3.4 + libmatroska v1.4.5

Видео
Идентификатор : 1
Формат : AVC
Формат/Информация : Advanced Video Codec
Профиль формата : High@L4.1
Параметр CABAC формата : Да
Параметр ReFrames формата : 4 кадра
Идентификатор кодека : V_MPEG4/ISO/AVC
Продолжительность : 43 м. 6 с.
Битрейт : 4085 Кбит/сек
Ширина : 1280 пикселей
Высота : 720 пикселей
Соотношение сторон : 16:9
Режим частоты кадров : Постоянный
Частота кадров : 23,976 (24000/1001) кадра/сек
Цветовое пространство : YUV
Субдискретизация насыщенности : 4:2:0
Битовая глубина : 8 бит
Тип развёртки : Прогрессивная
Бит/(Пиксели*Кадры) : 0.185
Размер потока : 1,23 Гбайт (84%)
Default : Да
Forced : Нет

Аудио #1
Идентификатор : 2
Формат : AC-3
Формат/Информация : Audio Coding 3
Расширение режима : CM (complete main)
Параметр Endianness формата : Big
Идентификатор кодека : A_AC3
Продолжительность : 43 м. 6 с.
Вид битрейта : Постоянный
Битрейт : 384 Кбит/сек
Каналы : 6 каналов
Расположение каналов : Front: L C R, Side: L R, LFE
Частота : 48,0 КГц
Частота кадров : 31,250 кадров/сек (1536 spf)
Метод сжатия : С потерями
Размер потока : 118 Мбайт (8%)
Язык : Russian
Default : Да
Forced : Нет

Аудио #2
Идентификатор : 3
Формат : AC-3
Формат/Информация : Audio Coding 3
Расширение режима : CM (complete main)
Параметр Endianness формата : Big
Идентификатор кодека : A_AC3
Продолжительность : 43 м. 6 с.
Вид битрейта : Постоянный
Битрейт : 384 Кбит/сек
Каналы : 6 каналов
Расположение каналов : Front: L C R, Side: L R, LFE
Частота : 48,0 КГц
Частота кадров : 31,250 кадров/сек (1536 spf)
Метод сжатия : С потерями
Размер потока : 118 Мбайт (8%)
Язык : English
Default : Нет
Forced : Нет

Внимание! Раздача ведётся путём добавления новых серий; при каждом добавлении создаётся новый торрент. Чтобы начать докачку новой серии, пользователям необходимо сделать следующее:
(1) остановить скачивание,
(2) удалить старый торрент у себя из клиента (старые серии удалять не надо),
(3) скачать новый торрент и запустить его у себя в клиенте вместо старого, при этом указать клиенту путь в старую папку куда и должно происходить скачивание новых серий.
Ваш клиент при этом должен произвести хеширование (проверку) старой папки (если не производит сам - помогите ему сделать это), и будет докачивать только те серии которых у вас ещё нет. Старые серии при этом не удаляются, а продолжают раздаваться!
Eсли вы уже удалили старые серии, то предотвратить повторную закачку старых серий можно, отжав галочку в соответствующих местах при запуске нового торрента. По возможности, желательно не удалять старые серии как можно дольше чтобы релизёр не столько продолжал раздавать старые серии, а смог сконцентрироваться на новых.
pb.wtf



Скачать Я – зомби через торрент http://img12.lostpic.net/2018/02/28/3fffeae7012cfcbd48c04f605e69b45b.jpg Скачать фильм Я – зомби через торрент бесплантно в хорошем качестве Описание: В центре сюжета - студентка медицинского факультета Оливия «Лив» Мур, для которой последствия одной из вечеринок стали переломным ... 9.5 10 6
Info! Золотая раздача, скачанное не засчитывается.
Торрент: Зарегистрирован [2018-05-30 13:57] · скачан: 77 раз
Статус: √ проверено
Размер: 18.92 GB
Как cкачать? Как скачать Я – зомби через торрент | qTorrent

% Раздел Тема Автор DL S | L
Зарубежные сериалы [ 6.98 GB ] Я – зомби / iZombie / Сезон: 4 / Серии: 1-13 из 13 [2018 WEB-DLRip] MVO [NewStudio] bober100 Скачать
1 | 0
Зарубежные сериалы [ 14.28 GB ] Я – зомби / iZombie / Сезон: 4 / Серии: 1-13 из 13 [2018 WEB-DL 720p] MVO [NewStudio] bober100 Скачать
1 | 0
Зарубежные сериалы [ 24.89 GB ] Я – зомби / iZombie / Сезон: 4 / Серии: 1-13 из 13 [2018 WEB-DL 1080p] MVO [NewStudio] bober100 Скачать
1 | 0
Зарубежные сериалы [ 14.28 GB ] Я – зомби / iZombie / Сезон: 4 / Серии: 1-13 из 13 [2018 WEBRip 720p] MVO [Jaskier] bober100 Скачать
1 | 0
Зарубежные сериалы [ 6.71 GB ] Я – зомби / iZombie / Сезон: 4 / Серии: 1-13 из 13 [2018 WEBRip] MVO [Jaskier] bober100 Скачать
1 | 0
Зарубежные сериалы [ 24.89 GB ] Я – зомби / iZombie / Сезон: 4 / Серии: 1-13 из 13 [2018 WEBRip 1080p] MVO [Jaskier] bober100 Скачать
1 | 0
Зарубежные сериалы [ 6.27 GB ] Я – зомби / iZombie / Сезон: 4 / Серия 1-13 из 13 [2018 WEB-DLRip] MVO [BaibaKo] GEKADOL Скачать
1 | 0


Последний раз редактировалось: bober100 (2018-05-30 13:56), всего редактировалось 8 раз(а)

28-11-2019 20:33  

Отключить всю рекламу на сайте

06-03-2018 15:03 Я – зомби Скачать торрент  

Хороший сериал, кстати.pb.wtf



11-03-2018 15:02 Я – зомби Скачать торрент  

Сериал да, но что то 4 сезон не радует...pb.wtf



    Дорогой пользователь! Огромная просьба, поблагодарите релизера, оцените раздачу и оставьте свои комментарий, если Вы скачали Я – зомби через торрент бесплатно! Внесите свою лепту в развитие PiratBit!
    Комментировать посты могут только пользователи прошедшие не сложную регистрацию
    Показать сообщения:    

    Я – зомби через торрент
    Скачать бесплатно Я – зомби
    Я – зомби скачать торрент
    Я – зомби смотреть онлайн
    Cкачать фильм Я – зомби бесплатно
    Я – зомби скачать торрент в хорошем качестве
    Я – зомби смотреть онлайн бесплатно в хорошем качестве


    Вы не можете начинать темы
    Вы не можете отвечать на сообщения
    Вы не можете редактировать свои сообщения
    Вы не можете удалять свои сообщения
    Вы не можете голосовать в опросах
    Вы не можете прикреплять файлы к сообщениям
    Вы можете скачивать файлы