новый адрес
Мега распродажа FORZA HORIZON 4 ULTIMATE+ВСЕ DLC+ОНЛАЙН всего за 499р. 349 руб. (супер цена). Внимание количество ограничено!!!

iTunes

1+1

iTunes

мы

iTunes

1

iTunes

Чернобыль

iTunes

Ральф против интернета

Лицензия

ПШазам

Лицензия

Игра престолов

Лицензия

30
pack

ВАЖНО

!!Акция!!

Alien_RageХит недели

RePack

Resident Evil 21

ИГРА 18+

pack

RePack

Metro:Exodus

!!Акция!!

Alien_Rage

RePack

fifa19

RePack

Assassins Creed: Odyssey

RePack

NEED FOR SPEED™ PAYBACK

3 сезон

9 сезон

Бесстыжие 9 сезон

Все сериалы

все сериалы на PB.wtf

RePack

FAR CRY 5
Ребята, катастрофически не хватает 1900р. для оплаты серверов за Октябрь (всвязи с блокировками трафик упал в 3 раза), 1-2р., выручайте.
  

Дама с собачкой (Иосиф Хейфиц) [1960, СССР, драма, мелодрама, DVDRip от AVP Studio] pb.wtf

Дама с собачкой через торрент pb.wtf

Размер: 1.09 GB | Добавлен: 1 год 8 мес. назад | Торрент скачан:13 раз
Скачать  

28-02-2018 09:01 Дама с собачкой Скачать торрент  

Дама с собачкой
Страна: СССР
Производство: Ленфильм

Жанр: драма, мелодрама
Год выпуска: 1960
Продолжительность: 01:24:22

Перевод: Не требуется
Cубтитры: нет
Оригинальная аудиодорожка: русский

Режиссер: Иосиф Хейфиц

В ролях:
Ия Саввина, Алексей Баталов, Нина Алисова, Дмитрий Зебров, Пантелеймон Крымов, Юрий Медведев, Юрий Свирин, Владимир Эренберг...
Об актёрах подробней

Описание:
Случайное знакомство на отдыхе в Ялте Гурова и Анны Сергеевны перерастает в глубокое чувство. Их общение вдали от дома открывает перед обоими новый мир, полный иллюзорных надежд на совместное будущее. Но он женат, и у неё своя семья...

Источник: DVD9 R5
Качество видео: DVDRip
Формат видео: AVI

Видео: 704x512 (1,375:1), 25,000 кадров/сек, XviD ~ 1391 kbps avg, 0.154 bit/pixel
Аудио: 48 kHz, Dolby Digital AC3 5.1, 448 kbps

Раздача от:
Общее
Полное имя : Dama.s.sobachkoy.1960.DVDRip_[New-team]_by_AVP_Studio.avi
Формат : AVI
Формат/Информация : Audio Video Interleave
Размер файла : 1,09 Гбайт
Продолжительность : 1 ч. 24 м.
Общий поток : 1848 Кбит/сек
Программа кодирования : VirtualDubMod 1.5.10.3 | www.virtualdub-fr.org || (build 2550/release)
Библиотека кодирования : VirtualDubMod build 2550/release

Видео
Идентификатор : 0
Формат : MPEG-4 Visual
Профиль формата : Advanced Simple@L5
Настройки формата : BVOP1 / Custom Matrix
Параметр BVOP формата : 1
Параметр QPel формата : Нет
Параметр GMC формата : Без точки перехода
Параметр матрицы формата : Выборочная
Идентификатор кодека : XVID
Идентификатор кодека/Подсказка : XviD
Продолжительность : 1 ч. 24 м.
Битрейт : 1391 Кбит/сек
Ширина : 704 пикселя
Высота : 512 пикселей
Соотношение сторон : 1,375
Частота кадров : 25,000 кадров/сек
Цветовое пространство : YUV
Субдискретизация насыщенности : 4:2:0
Битовая глубина : 8 бит
Тип развёртки : Прогрессивная
Метод сжатия : С потерями
Бит/(Пиксели*Кадры) : 0.154
Размер потока : 839 Мбайт (75%)
Библиотека кодирования : XviD 73

Аудио
Идентификатор : 1
Формат : AC-3
Формат/Информация : Audio Coding 3
Идентификатор кодека : 2000
Продолжительность : 1 ч. 24 м.
Вид битрейта : Постоянный
Битрейт : 448 Кбит/сек
Каналы : 6 каналов
Расположение каналов : Front: L C R, Side: L R, LFE
Частота : 48,0 КГц
Частота кадров : 31,250 кадров/сек (1536 SPF)
Битовая глубина : 16 бит
Метод сжатия : С потерями
Размер потока : 270 Мбайт (24%)
Выравнивание : Разделение по промежуткам
Продолжительность промежутка : 40 мс. (1,00 видеокадр)
Время предзагрузки промежутка : 500 мс
pb.wtf



Скачать Дама с собачкой через торрент http://picplus.ru/img/1802/28/481b6b10.png Скачать фильм Дама с собачкой через торрент бесплантно в хорошем качестве Описание:Случайное знакомство на отдыхе в Ялте Гурова и Анны Сергеевны перерастает в глубокое чувство. Их общение вдали от дома открывает ... 5 10 1
Info! Золотая раздача, скачанное не засчитывается.
Торрент: Зарегистрирован [2018-02-28 09:01] · скачан: 13 раз
Статус: √ проверено
Размер: 1.09 GB
Как cкачать? Как скачать Дама с собачкой через торрент | qTorrent

% Раздел Тема Автор DL S | L
Фантастика [ 341 MB ] Олег Дивов - Дама с собачкой [Ирина Зубкова 2018 ~56 Kbps MP3] oleg8 Скачать
1 | 0
Кино СССР [ 1.09 GB ] Дама с собачкой [1960 СССР DVDRip-AVC от AVP Studio] AVP Studio Скачать
1 | 0
Кино СССР [ 745 MB ] Дама с собачкой [1960 СССР DVDRip от AVP Studio] AVP Studio Скачать
1 | 0


>> Регистрируемся здесь <<






Отзывы и комментарии о схеме читаем и пишем здесь: ---> Отзывы и комментарии о схеме

Новые благодарочки в телеграм довольных пользователей:
скриншот   скриншот   скриншот   скриншот   скриншот
    Дорогой пользователь! Огромная просьба, поблагодарите релизера, оцените раздачу и оставьте свои комментарий, если Вы скачали Дама с собачкой через торрент бесплатно! Внесите свою лепту в развитие PiratBit!
    Комментировать посты могут только пользователи прошедшие не сложную регистрацию
    Показать сообщения:    

    Дама с собачкой через торрент
    Скачать бесплатно Дама с собачкой
    Дама с собачкой скачать торрент
    Дама с собачкой смотреть онлайн
    Cкачать фильм Дама с собачкой бесплатно
    Дама с собачкой скачать торрент в хорошем качестве
    Дама с собачкой смотреть онлайн бесплатно в хорошем качестве


    Вы не можете начинать темы
    Вы не можете отвечать на сообщения
    Вы не можете редактировать свои сообщения
    Вы не можете удалять свои сообщения
    Вы не можете голосовать в опросах
    Вы не можете прикреплять файлы к сообщениям
    Вы можете скачивать файлы