Ссылка на приватное зеркало всего за 1$. Внимание количество ограничено!!!

OK

1+1

iTunes

мы

OK

1

WEB-DLRip

Джокер

Пифагор

Ведьмак / The Witcher сериал

iTunes

ПШазам

ОК

Оно 2

iTunes

30
pack

Вам бонус

ВАЖНО

!!Акция!!

Alien_RageХит недели

RePack

Resident Evil 21

ИГРА 18+

pack

RePack

jed

RePack

fifa19

RePack

Assassins Creed: Odyssey

RePack

NEED FOR SPEED™ PAYBACK

4 сезон

9 сезон

Бесстыжие 9 сезон

Все сериалы

все сериалы на PB.wtf

RePack

FAR CRY 5
  

5 врачей / 5 Doctors (Макс Азулай, Мэтт Портер) [2016, комедия, BDRip 720p] MVO ["Синема УС"] pb.wtf

5 врачей через торрент pb.wtf

Размер: 3.98 GB | Добавлен: 1 год 10 мес. назад | Торрент скачан:0 раз
Скачать  

28-02-2018 15:29 5 врачей Скачать торрент  

5 врачей / 5 DoctorsГод выпуска: 2016
Страна: США
Жанр: комедия
Продолжительность: 01:37:14
Перевод: Любительский (многоголосый) ["Синема УС"]
Субтитры: отсутствуют

Режиссер: Макс Азулай, Мэтт Портер

rating

В ролях:

Макс Азулай, Мэтт Портер, Эмили Уолтон, Зоя Азулай, Бобби Мойанан, Эдди Пепитон, Джоди Лонг, Джереми Шамос, Питер Фридман, Адам Даннхайссер

Описание:

У актера-неудачника Спенсера Камински возникла идея, как наладить свою жизнь. Надо просто приехать в город детства и записаться ко всем знакомым врачам. Вот только возникла одна проблема - ни один из диагнозов, которые он себе придумал, не подтвердился. Зато у него появился шанс узнать, какие проблемы у его старого школьного друга, у родной сестры и других жителей города. Он понял одну истину - когда забываешь о себе, чувствуешь себя гораздо бодрее.

Качество: BDRip 720p
Формат: MKV
Видео кодек: H.264
Аудио кодек: AC3

Видео: 5417 kb/s, 1280x692
Аудио#1: AC3, 2 ch, 448 kbps
скриншот  скриншот  скриншот  

Общее
Уникальный идентификатор : 215621764797474423778729664282964889345 (0xA2373DC9040BC0CEA6D2CC1D99B18F01)
Полное имя : D:\5.Doctors.2016.P.BDRip.72Op_KOSHARA.mkv
Формат : Matroska
Версия формата : Version 2
Размер файла : 3,98 Гбайт
Продолжительность : 1 ч. 37 м.
Режим общего битрейта : Переменный
Общий поток : 5867 Кбит/сек
Дата кодирования : UTC 2018-02-25 20:21:30
Программа кодирования : mkvmerge v8.3.0 ('Over the Horizon') 64bit
Библиотека кодирования : libebml v1.3.1 + libmatroska v1.4.2

Видео
Идентификатор : 1
Формат : AVC
Формат/Информация : Advanced Video Codec
Профиль формата : High@L4.1
Параметр CABAC формата : Да
Параметр ReFrames формата : 4 кадра
Идентификатор кодека : V_MPEG4/ISO/AVC
Продолжительность : 1 ч. 37 м.
Вид битрейта : Переменный
Битрейт : 5417 Кбит/сек
Максимальный битрейт : 6200 Кбит/сек
Ширина : 1280 пикселей
Высота : 692 пикселя
Соотношение сторон : 1,85:1
Режим частоты кадров : Постоянный
Частота кадров : 23,976 (24000/1001) кадра/сек
Стандарт вещания : Component
Цветовое пространство : YUV
Субдискретизация насыщенности : 4:2:0
Битовая глубина : 8 бит
Тип развёртки : Прогрессивная
Бит/(Пиксели*Кадры) : 0.250
Размер потока : 3,60 Гбайт (90%)
Default : Да
Forced : Нет
Цветовой диапазон : Limited
Основные цвета : BT.709
Характеристики трансфера : BT.709
Коэффициенты матрицы : BT.709

Аудио
Идентификатор : 2
Формат : AC-3
Формат/Информация : Audio Coding 3
Расширение режима : CM (complete main)
Параметр Endianness формата : Big
Идентификатор кодека : A_AC3
Продолжительность : 1 ч. 37 м.
Вид битрейта : Постоянный
Битрейт : 448 Кбит/сек
Каналы : 2 канала
Расположение каналов : Front: L R
Частота : 48,0 КГц
Частота кадров : 31,250 кадров/сек (1536 spf)
Метод сжатия : С потерями
Размер потока : 312 Мбайт (8%)
Default : Да
Forced : Нет

pb.wtf



Скачать 5 врачей через торрент http://img12.lostpic.net/2018/02/28/71e75395dc19bc04f8db6a5344950cdb.jpg Скачать фильм 5 врачей через торрент бесплантно в хорошем качестве Описание: У актера-неудачника Спенсера Камински возникла идея, как наладить свою жизнь. Надо просто приехать в город детства и записаться ... 10 10 2
Торрент: Зарегистрирован [2018-02-28 15:29] · скачан: 0 раз
Статус: T временная
Размер: 3.98 GB
Как cкачать? Как скачать 5 врачей через торрент | qTorrent

% Раздел Тема Автор DL S | L
T Фильмы (мультфильмы) cо спонсором показа (Новинки AVI/MKV) [ 1.37 GB ] 5 врачей / 5 Doctors [2016 HDRip] MVO ["Синема УС"] bober100 Скачать
1 | 0

28-11-2019 20:33  

Отключить всю рекламу на сайте


    Дорогой пользователь! Огромная просьба, поблагодарите релизера, оцените раздачу и оставьте свои комментарий, если Вы скачали 5 врачей через торрент бесплатно! Внесите свою лепту в развитие PiratBit!
    Комментировать посты могут только пользователи прошедшие не сложную регистрацию
    Показать сообщения:    

    5 врачей через торрент
    Скачать бесплатно 5 врачей
    5 врачей скачать торрент
    5 врачей смотреть онлайн
    Cкачать фильм 5 врачей бесплатно
    5 врачей скачать торрент в хорошем качестве
    5 врачей смотреть онлайн бесплатно в хорошем качестве


    Вы не можете начинать темы
    Вы не можете отвечать на сообщения
    Вы не можете редактировать свои сообщения
    Вы не можете удалять свои сообщения
    Вы не можете голосовать в опросах
    Вы не можете прикреплять файлы к сообщениям
    Вы можете скачивать файлы