Ссылка на приватное зеркало нашего сайта всего за 1$. Внимание количество ограничено!!!

2 сезон

iTunes

1 сезон

1

2 сезон

2 сезон

iTunes

1 сезон

RePack

30

Ultimate

ВАЖНО

ИГРА 18+

pack

RePack

MK11
pack

Забери бонус

RePack

jed

!!Акция!!

Alien_Rage

RePack

fifa19

RePack

Assassins Creed: Odyssey

RePack

NEED FOR SPEED™ PAYBACK

4 сезон

9 сезон

Бесстыжие 9 сезон

Все сериалы

все сериалы на PB.wtf

RePack

FAR CRY 5
  

Видоизмененный углерод / Altered Carbon / Сезон: 1 / Серии: 1-10 из 10 (Ута Бризвитц, Питер Хор, Ник Харран) [2018, фантастика, триллер, драма, WEBRip 720p] MVO [Jaskier] pb.wtf

Видоизмененный углерод через торрент pb.wtf

Размер: 22.31 GB | Добавлен: 2 года 8 мес. назад | Торрент скачан:52 раза
Скачать  

28-02-2018 16:10 Видоизмененный углерод Скачать торрент  

Видоизмененный углерод / Altered Carbon
Год выпуска: 2018
Страна: США
Жанр: фантастика, триллер, драма
Продолжительность: ~00:58:00 серия
Перевод: Профессиональный многоголосый - Jaskier
Субтитры: английские

Режиссер: Ута Бризвитц, Питер Хор, Ник Харран

rating

В ролях:

Антонио Марциале (Isaac Bancroft), Крис Коннер (Poe), Хиро Канагава (Captain Tanaka), Кристин Леман (Miriam Bancroft), Алика Аутран (Okulov), Тич Грант (Jimmy DeSoto), Юэль Киннаман (Takeshi Kovacs), Хэйли Лоу (Lizzie Elliot), Заф Пару (Curtis), Джеймс Пьюрфой (Laurens Bancroft), Валид Зуэйтер (Abboud), Адам Буш (Mickey)

Описание:

Земля, XXVII век. Мир, в котором появилась возможность «сгружать» человеческое сознание и личность из одного тела в другое. Идеальный мир и для преступников, и для полицейских, и для армии, но вряд ли идеальный для бывшего военного спецназовца Такеси Ковача, которого миллиардер Бэнкрофт нанял для расследования гибели одного из своих тел. Внешне - явное самоубийство. В действительности - явное убийство. Вот только воспоминания об убийце уничтожены вместе с телом-клоном.

Качество: WEBRip 720p
Формат: MKV
Видео кодек: H.264
Аудио кодек: AC3

Видео: MPEG-4 AVC, ~ 5500 Кбит/с, 1280x640
Аудио#1: Русский (AC3, 6 ch, 384 Кбит/с)
Аудио#2: английский (AC3, 6 ch, 384 Кбит/с)
скриншот  скриншот  скриншот  

Общее
Уникальный идентификатор : 241269809283394345582967851720514763745 (0xB582E00275F64C40A3BF75FF21807BE1)
Полное имя : D:\Altered Carbon. Season 1 (WEBRip l 720p l Jaskier)\Altered.Carbon.S01E01.720p.NF.DD5.1.x264-Jaskier.mkv
Формат : Matroska
Версия формата : Version 2
Размер файла : 2,46 Гбайт
Продолжительность : 58 м. 53 с.
Общий поток : 5972 Кбит/сек
Дата кодирования : UTC 2018-02-28 13:44:48
Программа кодирования : mkvmerge v7.8.0 ('River Man') 32bit built on Apr 3 2015 12:11:22
Библиотека кодирования : libebml v1.3.1 + libmatroska v1.4.2

Видео
Идентификатор : 1
Формат : AVC
Формат/Информация : Advanced Video Codec
Профиль формата : High@L4.1
Параметр CABAC формата : Да
Параметр ReFrames формата : 10 кадров
Идентификатор кодека : V_MPEG4/ISO/AVC
Продолжительность : 58 м. 53 с.
Битрейт : 5585 Кбит/сек
Ширина : 1280 пикселей
Высота : 640 пикселей
Соотношение сторон : 2,000
Режим частоты кадров : Постоянный
Частота кадров : 23,976 (24000/1001) кадра/сек
Цветовое пространство : YUV
Субдискретизация насыщенности : 4:2:0
Битовая глубина : 8 бит
Тип развёртки : Прогрессивная
Бит/(Пиксели*Кадры) : 0.259
Размер потока : 2,09 Гбайт (85%)
Библиотека кодирования : x264 core 152 r2851kMod ba24899
Настройки программы : cabac=1 / ref=10 / deblock=1:-3:-3 / analyse=0x3:0x133 / me=umh / subme=10 / psy=1 / fade_compensate=0.00 / psy_rd=1.00:0.00 / mixed_ref=1 / me_range=48 / chroma_me=1 / trellis=2 / 8x8dct=1 / cqm=0 / deadzone=21,11 / fast_pskip=0 / chroma_qp_offset=-2 / threads=12 / lookahead_threads=2 / sliced_threads=0 / nr=0 / decimate=0 / interlaced=0 / bluray_compat=0 / constrained_intra=0 / bframes=8 / b_pyramid=2 / b_adapt=2 / b_bias=0 / direct=3 / weightb=1 / open_gop=0 / weightp=2 / keyint=250 / keyint_min=23 / scenecut=40 / intra_refresh=0 / rc=crf / mbtree=0 / crf=16.0000 / qcomp=0.60 / qpmin=0 / qpmax=69 / qpstep=4 / ip_ratio=1.30 / pb_ratio=1.20 / aq=3:0.80
Язык : English
Default : Да
Forced : Нет

Аудио #1
Идентификатор : 2
Формат : AC-3
Формат/Информация : Audio Coding 3
Расширение режима : CM (complete main)
Параметр Endianness формата : Big
Идентификатор кодека : A_AC3
Продолжительность : 58 м. 53 с.
Вид битрейта : Постоянный
Битрейт : 384 Кбит/сек
Каналы : 6 каналов
Расположение каналов : Front: L C R, Side: L R, LFE
Частота : 48,0 КГц
Частота кадров : 31,250 кадров/сек (1536 spf)
Метод сжатия : С потерями
Размер потока : 162 Мбайт (6%)
Заголовок : Jaskier
Язык : Russian
Default : Да
Forced : Нет

Аудио #2
Идентификатор : 3
Формат : AC-3
Формат/Информация : Audio Coding 3
Расширение режима : CM (complete main)
Параметр Endianness формата : Big
Идентификатор кодека : A_AC3
Продолжительность : 58 м. 53 с.
Вид битрейта : Постоянный
Битрейт : 384 Кбит/сек
Каналы : 6 каналов
Расположение каналов : Front: L C R, Side: L R, LFE
Частота : 48,0 КГц
Частота кадров : 31,250 кадров/сек (1536 spf)
Метод сжатия : С потерями
Размер потока : 162 Мбайт (6%)
Язык : English
Default : Нет
Forced : Нет

Текст
Идентификатор : 4
Формат : UTF-8
Идентификатор кодека : S_TEXT/UTF8
Идентификатор кодека/Информация : UTF-8 Plain Text
Язык : English
Default : Нет
Forced : Нет

pb.wtf



Скачать Видоизмененный углерод через торрент http://i99.fastpic.ru/big/2018/0211/68/eb83ce2631eb2b3df0b761c25b31e968.png Скачать фильм Видоизмененный углерод через торрент бесплантно в хорошем качестве Описание: Земля, XXVII век. Мир, в котором появилась возможность «сгружать» человеческое сознание и личность из одного тела в другое. ... 10 10 2
Торрент: Зарегистрирован [2018-02-28 16:10] · скачан: 52 раз
Статус: √ проверено
Размер: 22.31 GB
Как cкачать? Как скачать Видоизмененный углерод через торрент | qTorrent

% Раздел Тема Автор DL S | L
Зарубежные сериалы [ 39.97 GB ] Видоизменённый углерод / Altered Carbon / Сезон: 2 / Серии: 1-8 из 8 [2020 WEBRip 1080p] 2xMVO [NewStudio LostFilm] bober100 Скачать
5 | 0
Зарубежные сериалы [ 14.08 GB ] Видоизменённый углерод / Altered Carbon / Сезон: 2 / Серии: 1-8 из 8 [2020 WEBRip 1080p] MVO [Jaskier] bober100 Скачать
3 | 0
Зарубежные сериалы [ 14.24 GB ] Видоизмененный углерод / Altered Carbon / Сезон: 2 / Серия: 1-8 из 8 [2020 WEB-DL 1080p] [MVO] killermax2013 Скачать
3 | 0
Зарубежные сериалы [ 15.15 GB ] Видоизменённый углерод / Altered Carbon / Сезон: 2 / Серии: 1-8 из 8 [2020 WEB-DL 1080p] MVO [LostFilm] bober100 Скачать
1 | 0
Зарубежные сериалы [ 35.72 GB ] Видоизменённый углерод / Altered Carbon / Сезон: 2 / Серии: 1-8 из 8 [2020 WEBRip 1080p] DVO [Gears Media] bober100 Скачать
4 | 0
Фильмы без перевода [ 14.09 GB ] Видоизмененный углерод / Altered Carbon / Сезон: 2 / Серия: 1-8 из 8 [2020 WEBRip 1080p] [Multi Subs] killermax2013 Скачать
1 | 0
Зарубежные сериалы [ 17.34 GB ] Видоизмененный углерод / Altered Carbon / Сезон: 1 / Серия: 1-10 из 10 [2018 WEBRip 1080p] [MVO] killermax2013 Скачать
1 | 1

28-11-2019 20:33  

Отключить всю рекламу на сайте

    Дорогой пользователь! Огромная просьба, поблагодарите релизера, оцените раздачу и оставьте свои комментарий, если Вы скачали Видоизмененный углерод через торрент бесплатно! Внесите свою лепту в развитие PiratBit!
    Комментировать посты могут только пользователи прошедшие не сложную регистрацию
    Показать сообщения:    

    Видоизмененный углерод через торрент
    Скачать бесплатно Видоизмененный углерод
    Видоизмененный углерод скачать торрент
    Видоизмененный углерод смотреть онлайн
    Cкачать фильм Видоизмененный углерод бесплатно
    Видоизмененный углерод скачать торрент в хорошем качестве
    Видоизмененный углерод смотреть онлайн бесплатно в хорошем качестве


    Вы не можете начинать темы
    Вы не можете отвечать на сообщения
    Вы не можете редактировать свои сообщения
    Вы не можете удалять свои сообщения
    Вы не можете голосовать в опросах
    Вы не можете прикреплять файлы к сообщениям
    Вы можете скачивать файлы