Доктор Стрэндж

Лицензия

Добыча

MVO

Дом дракона

1 сезон

Тор

Лицензия

Мэверик

Лицензия

Там, где раки поют

MVO

Властелин колец

1 сезон

Ultimate

pack

Рекомендуем

30

Repack

ВАЖНО

ВАЖНО

Ghostwire

RePack

jed

RePack

nioh2

RePack

RDR2

RePack

NEED FOR SPEED™ PAYBACK

RePack

скачать торрент

Кинопоиск HD

Острые козырьки 6 сезон

6 сезон

FAR CRY 6

RePack

скачать торрент

Лицензия

скачать торрент

MVO

1

1 сезон

скачать торрент

1 сезон

скачать торрент

Лицензия

  

Бесчеловечные / Inhumane (Райан Робинс) [2018, триллер, WEB-DL 720p] MVO ["Синема УС"]

Бесчеловечные через торрент pb.wtf

Размер: 2.73 GB | Добавлен: 4 года 7 мес. назад | Торрент скачан:34 раза
Смотреть онлайн Бесчеловечные | Скачать   

28-02-2018 17:54 Бесчеловечные Скачать торрент  

Бесчеловечные / InhumaneГод выпуска: 2018
Страна: США
Жанр: триллер
Продолжительность: 01:21:28
Перевод: Любительский (многоголосый) ["Синема УС"]
Субтитры: отсутствуют

Режиссер: Райан Робинс

rating

В ролях:

Мишель Мани, Джейсон Джеймс Рихтер, Мэтт Мартин, Джастин Армстронг, Стивен Броди, Брэйди МакИннесс, Димитриус Пулидо, Кришна Смита, Рокси Дэйзи Блум

Описание:

В секретном правительственном учреждении ученый, занимающаяся психологией поведения человека, проводит экспериментальные испытания медицинского препарата на группе заключенных, чтобы выяснить, что послужило причиной такого их агрессивного поведения.

Качество: WEB-DL 720p
Формат: MKV

Видео: MPEG-4 AVC, 4406 kb/s, 1280x534
Аудио#1: Русский (AC3, 2 ch, 384 Кбит/с)
скриншот  скриншот  скриншот  

Общее
Уникальный идентификатор : 215881676395147481608058383161759588329 (0xA2694C6A965896D68797837A64AB5FE9)
Полное имя : D:\Inhumane.2018.P.WEB-DL.72Op_KOSHARA.mkv
Формат : Matroska
Версия формата : Version 2
Размер файла : 2,73 Гбайт
Продолжительность : 1 ч. 21 м.
Режим общего битрейта : Переменный
Общий поток : 4792 Кбит/сек
Дата кодирования : UTC 2018-02-27 17:47:50
Программа кодирования : mkvmerge v8.3.0 ('Over the Horizon') 64bit
Библиотека кодирования : libebml v1.3.1 + libmatroska v1.4.2

Видео
Идентификатор : 1
Формат : AVC
Формат/Информация : Advanced Video Codec
Профиль формата : [email protected]
Параметр CABAC формата : Да
Параметр ReFrames формата : 4 кадра
Идентификатор кодека : V_MPEG4/ISO/AVC
Продолжительность : 1 ч. 21 м.
Вид битрейта : Переменный
Битрейт : 4406 Кбит/сек
Максимальный битрейт : 5000 Кбит/сек
Ширина : 1280 пикселей
Высота : 534 пикселя
Соотношение сторон : 2,40:1
Режим частоты кадров : Постоянный
Частота кадров : 23,976 (24000/1001) кадра/сек
Стандарт вещания : Component
Цветовое пространство : YUV
Субдискретизация насыщенности : 4:2:0
Битовая глубина : 8 бит
Тип развёртки : Прогрессивная
Бит/(Пиксели*Кадры) : 0.263
Размер потока : 2,45 Гбайт (90%)
Default : Да
Forced : Нет
Цветовой диапазон : Limited
Основные цвета : BT.709
Характеристики трансфера : BT.709
Коэффициенты матрицы : BT.709

Аудио
Идентификатор : 2
Формат : AC-3
Формат/Информация : Audio Coding 3
Расширение режима : CM (complete main)
Параметр Endianness формата : Big
Идентификатор кодека : A_AC3
Продолжительность : 1 ч. 21 м.
Вид битрейта : Постоянный
Битрейт : 384 Кбит/сек
Каналы : 2 канала
Расположение каналов : Front: L R
Частота : 48,0 КГц
Частота кадров : 31,250 кадров/сек (1536 spf)
Метод сжатия : С потерями
Размер потока : 224 Мбайт (8%)
Default : Да
Forced : Нет




Скачать Бесчеловечные через торрент http://img12.lostpic.net/2018/02/28/1980217b24e823d4b8adb99be336e528.jpg Скачать, смотреть онлайн Бесчеловечные бесплантно в хорошем качестве Описание: В секретном правительственном учреждении ученый, занимающаяся психологией поведения человека, проводит экспериментальные ... 5.5 10 4
Торрент: Зарегистрирован [2018-02-28 17:54] · скачан: 34 раз
Статус: T временная
Размер: 2.73 GB
Как cкачать? Как скачать Бесчеловечные через торрент | UTorrent

% Раздел Тема Автор DL S | L
T Фильмы (мультфильмы) cо спонсором показа (Новинки AVI/MKV) [ 1.39 GB ] Бесчеловечные / Inhumane | MVO | DLRip bober100 Скачать
1 | 0

28-11-2019 20:33  

Отключить вcю реклaмy на сайте

    Дорогой пользователь! Огромная просьба, поблагодарите релизера, оцените раздачу и оставьте свои комментарий, если Вы скачали Бесчеловечные через торрент бесплатно!!
    Комментировать посты могут только пользователи прошедшие не сложную регистрацию
    Показать сообщения:    


    Бесчеловечные через торрент
    Скачать бесплатно Бесчеловечные
    Бесчеловечные скачать торрент
    Бесчеловечные смотреть онлайн
    Cкачать фильм Бесчеловечные бесплатно
    Бесчеловечные скачать торрент в хорошем качестве
    Бесчеловечные смотреть онлайн бесплатно в хорошем качестве
    Вы не можете начинать темы
    Вы не можете отвечать на сообщения
    Вы не можете редактировать свои сообщения
    Вы не можете удалять свои сообщения
    Вы не можете голосовать в опросах
    Вы не можете прикреплять файлы к сообщениям
    Вы можете скачивать файлы