Ссылка на приватное зеркало всего за 1$. Внимание количество ограничено!!!

OK

1+1

iTunes

мы

OK

1

WEB-DLRip

Джокер

Пифагор

Ведьмак / The Witcher сериал

iTunes

ПШазам

ОК

Оно 2

iTunes

30
pack

Вам бонус

ВАЖНО

!!Акция!!

Alien_RageХит недели

RePack

Resident Evil 21

ИГРА 18+

pack

RePack

jed

RePack

fifa19

RePack

Assassins Creed: Odyssey

RePack

NEED FOR SPEED™ PAYBACK

4 сезон

9 сезон

Бесстыжие 9 сезон

Все сериалы

все сериалы на PB.wtf

RePack

FAR CRY 5
  

Немой / Mute (Дункан Джонс) [2018, фантастика, триллер, детектив, WEBRip 1080p] [MVO] (NewStudio) pb.wtf

Немой через торрент pb.wtf

Размер: 16.07 GB | Добавлен: 1 год 10 мес. назад | Торрент скачан:84 раза
Скачать  

28-02-2018 19:22 Немой Скачать торрент  

Немой / Mute
Год выхода : 2018
Жанр : фантастика, триллер, детектив
Страна : Великобритания, Германия
Продолжительность : 02:06:38
Перевод : Профессиональный (многоголосый) NewStudio
Субтитры : русские

Режиссер : Дункан Джонс

В ролях: Леви Эйзенблаттер, Александр Скарсгард, Рози Шоу, Ойген Баудер, Ливия Маттес, Jarah Maria Anders, Caroline Peters, Лаура Де Бур, Грегуар Грос, Сейнеб Салех

Описание: Берлин, 2052 год. Лео Байлер — немой бармен, и у него больше нет причин для существования: его любимая женщина исчезает. Поиски приводят Лео в подземный город, где он знакомится с парой американских хирургов. Лео не может понять, кем являются его новые знакомые — то ли они могут ему помочь, то ли ему стоит бежать от них подальше.



Файл
Качество : WEBRip 1080p [NF]
Формат видео : MKV
Видео : MPEG-4 AVC, 1920x960, ~ 17400 kb/s
Звук : 48 kHz, AC3, 6 ch, ~384 kbps - MVO
Звук : 48 kHz, AC3, 6 ch, ~384 kbps - ENG
General
Unique ID : 204986376739342483068653950326447443571 (0x9A36F0AB66B304D8A6277AFFB9168E73)
Complete name : F:\Mute.2018.WEBDL.1080p.NewStudio.TV.mkv
Format : Matroska
Format version : Version 4 / Version 2
File size : 16.1 GiB
Duration : 2 h 6 min
Overall bit rate : 18.2 Mb/s
Encoded date : UTC 2018-02-28 16:37:25
Writing application : mkvmerge v9.8.0 ('Kuglblids') 64bit
Writing library : libebml v1.3.4 + libmatroska v1.4.5

Video
ID : 1
Format : AVC
Format/Info : Advanced Video Codec
Format profile : High@L4.1
Format settings : CABAC / 4 Ref Frames
Format settings, CABAC : Yes
Format settings, RefFrames : 4 frames
Codec ID : V_MPEG4/ISO/AVC
Duration : 2 h 6 min
Bit rate : 17.0 Mb/s
Width : 1 920 pixels
Height : 960 pixels
Display aspect ratio : 2.000
Frame rate mode : Constant
Frame rate : 24.000 FPS
Color space : YUV
Chroma subsampling : 4:2:0
Bit depth : 8 bits
Scan type : Progressive
Bits/(Pixel*Frame) : 0.385
Stream size : 15.1 GiB (94%)
Writing library : x264 core 152 r2851kMod ba24899
Encoding settings : cabac=1 / ref=4 / deblock=1:-3:-3 / analyse=0x3:0x133 / me=umh / subme=10 / psy=1 / fade_compensate=0.00 / psy_rd=1.00:0.00 / mixed_ref=1 / me_range=48 / chroma_me=1 / trellis=2 / 8x8dct=1 / cqm=0 / deadzone=21,11 / fast_pskip=0 / chroma_qp_offset=-2 / threads=24 / lookahead_threads=4 / sliced_threads=0 / nr=0 / decimate=0 / interlaced=0 / bluray_compat=0 / constrained_intra=0 / bframes=8 / b_pyramid=2 / b_adapt=2 / b_bias=0 / direct=3 / weightb=1 / open_gop=0 / weightp=2 / keyint=250 / keyint_min=24 / scenecut=40 / intra_refresh=0 / rc=crf / mbtree=0 / crf=18.0000 / qcomp=0.60 / qpmin=0 / qpmax=69 / qpstep=4 / ip_ratio=1.30 / pb_ratio=1.20 / aq=3:0.80
Language : English
Default : Yes
Forced : No

Audio #1
ID : 2
Format : AC-3
Format/Info : Audio Coding 3
Format settings, Endianness : Big
Codec ID : A_AC3
Duration : 2 h 6 min
Bit rate mode : Constant
Bit rate : 384 kb/s
Channel(s) : 6 channels
Channel positions : Front: L C R, Side: L R, LFE
Sampling rate : 48.0 kHz
Frame rate : 31.250 FPS (1536 SPF)
Bit depth : 16 bits
Compression mode : Lossy
Stream size : 348 MiB (2%)
Title : NewStudio.TV
Language : Russian
Service kind : Complete Main
Default : Yes
Forced : No

Audio #2
ID : 3
Format : AC-3
Format/Info : Audio Coding 3
Format settings, Endianness : Big
Codec ID : A_AC3
Duration : 2 h 6 min
Bit rate mode : Constant
Bit rate : 384 kb/s
Channel(s) : 6 channels
Channel positions : Front: L C R, Side: L R, LFE
Sampling rate : 48.0 kHz
Frame rate : 31.250 FPS (1536 SPF)
Bit depth : 16 bits
Compression mode : Lossy
Stream size : 348 MiB (2%)
Language : English
Service kind : Complete Main
Default : No
Forced : No

Text
ID : 4
Format : ASS
Codec ID : S_TEXT/ASS
Codec ID/Info : Advanced Sub Station Alpha
Compression mode : Lossless
Language : Russian
Default : Yes
Forced : Yes

pb.wtf



Скачать Немой через торрент http://i99.fastpic.ru/big/2018/0201/9d/3f091f582e89aaee86c9e38c33aa299d.png Скачать фильм Немой через торрент бесплантно в хорошем качестве Описание: Берлин, 2052 год. Лео Байлер — немой бармен, и у него больше нет причин для существования: его любимая женщина исчезает. Поиски ... 10 10 1
Торрент: Зарегистрирован [2018-02-28 19:22] · скачан: 84 раз
Статус: T временная
Размер: 16.07 GB
Как cкачать? Как скачать Немой через торрент | qTorrent

% Раздел Тема Автор DL S | L
Фильмы 2018 [DVDrip, WEB-DLRip, HDrip] (DUB, MVO) [ 1.43 GB ] Немой / Mute [2018 WEBRip-AVC] MVO [NewStudio] sokol_ok Скачать
1 | 0
Фильмы 2018 [DVDrip, WEB-DLRip, HDrip] (DUB, MVO) [ 2.2 GB ] Немой / Mute [2018 WEBRip-AVC] MVO [NewStudio] sokol_ok Скачать
2 | 0
T Фильмы 2018 [DVDrip, WEB-DLRip, HDrip] (DUB, MVO) [ 2.47 GB ] Немой / Mute [2018 WEBRip-AVC] MVO [HDrezka Studio] WorldSM Скачать
1 | 0
T Фильмы (WEB-DL 720p, 1080p) [ 3.67 GB ] Немой / Mute [2018 WEBRip 1080p] MVO [BaibaKo] bober100 Скачать
1 | 0
T Фильмы (мультфильмы) cо спонсором показа (Новинки AVI/MKV) [ 2.05 GB ] Немой / Mute [2018 WEBRip] [MVO] killermax2013 Скачать
1 | 0
T Фильмы 2018 [DVDrip, WEB-DLRip, HDrip] (DUB, MVO) [ 1.46 GB ] Немой / Mute [2018 WEBRip] MVO [BaibaKo] bober100 Скачать
2 | 0
T Фильмы без перевода [ 3.34 GB ] Немой / Mute [2018 WEBRip 1080p] [Sub Rus] killermax2013 Скачать
1 | 0


Последний раз редактировалось: killermax2013 (2018-02-28 20:22), всего редактировалось 1 раз

28-11-2019 20:33  

Отключить всю рекламу на сайте

    Дорогой пользователь! Огромная просьба, поблагодарите релизера, оцените раздачу и оставьте свои комментарий, если Вы скачали Немой через торрент бесплатно! Внесите свою лепту в развитие PiratBit!
    Комментировать посты могут только пользователи прошедшие не сложную регистрацию
    Показать сообщения:    

    Немой через торрент
    Скачать бесплатно Немой
    Немой скачать торрент
    Немой смотреть онлайн
    Cкачать фильм Немой бесплатно
    Немой скачать торрент в хорошем качестве
    Немой смотреть онлайн бесплатно в хорошем качестве


    Вы не можете начинать темы
    Вы не можете отвечать на сообщения
    Вы не можете редактировать свои сообщения
    Вы не можете удалять свои сообщения
    Вы не можете голосовать в опросах
    Вы не можете прикреплять файлы к сообщениям
    Вы можете скачивать файлы