Ссылка на приватное зеркало нашего сайта всего за 1$. Внимание количество ограничено!!!

2 сезон

iTunes

1 сезон

1

iTunes

iTunes

iTunes

1 сезон

RePack

30

ИГРА 18+

pack

ВАЖНО

!!Акция!!

Alien_RageХит недели

RePack

MK11
pack

Забери бонус

RePack

jed

!!Акция!!

Alien_Rage

RePack

fifa19

RePack

Assassins Creed: Odyssey

RePack

NEED FOR SPEED™ PAYBACK

4 сезон

9 сезон

Бесстыжие 9 сезон

Все сериалы

все сериалы на PB.wtf

RePack

FAR CRY 5
  

Ученик чародея / The Sorcerer's Apprentice (Джон Тёртелтауб) [2010, США, Walt Disney Pictures, Боевик, фэнтези, комедия, драма, приключения, BDRip 1080p] DUB Sub rus pb.wtf

Ученик чародея через торрент pb.wtf

Размер: 9.78 GB | Добавлен: 9 лет назад | Торрент скачан:133 раза
Скачать  

18-11-2010 17:38 Ученик чародея Скачать торрент  

Ученик чародея / Sorcerer's Apprentice, The

Страна: США, Walt Disney Pictures
Жанр: Боевик, фэнтези, комедия, драма, приключения
Год выпуска: 2010
Продолжительность: 01:49:02
Перевод: Профессиональный (дублированный)[Лицензия]
Cубтитры: Русский, Английский
Режиссер: Джон Тёртелтауб

В ролях: Николас Кейдж, Джей Барушель, Альфред Молина, Тереза Палмер, Тоби Кеббелл, Омар Бенсон Миллер, Моника Беллуччи, Элис Крайдж, Джэйк Черри, Джеймс А. Стефенс

Описание: Манхэттен, наши дни. Мастер магии Бальтазар Блэйк пытается защитить Нью-Йорк от своего старого врага Максима Хорвата — злобного колдуна с самыми черными планами. Однако, Бальтазар чувствует, что не справится один и ему нужен помощник. На эту роль он выбирает самого обычного парня Дэйва, который вовсе не хочет спасать мир. Однако ему придется пройти ускоренный курс магии и вступить в битву.

Тип релиза: BDRip 1080p
Контейнер: MKV
Видео кодек: H.264
Аудио кодек: AC3, DTS
Видео: 1920x800, x264, 23.976 fps, ~11 mbps
Аудио:
Русский AC3 5.1 384kbps, 48.0 KHz
Английский DTS 5.1 1510kbps, 48.0 KHz
General
Complete name : D:\Разное\The.Sorcerers.Apprentice.2010.D.BDRip.1080p.mkv
Format : Matroska
File size : 9.78 GiB
Duration : 1h 49mn
Overall bit rate : 12.8 Mbps
Movie name : The.Sorcerers.Apprentice.2010.D.BDRip.1080p.[uniongang.tv]
Encoded date : UTC 2010-11-18 00:40:12
Writing application : mkvmerge v4.1.1 ('Bouncin' Back') сборка от Jul 3 2010 22:54:08
Writing library : libebml v1.0.0 + libmatroska v1.0.0
Video
ID : 1
Format : AVC
Format/Info : Advanced Video Codec
Format profile : High@L4.1
Format settings, CABAC : Yes
Format settings, ReFrames : 5 frames
Muxing mode : Container profile=Unknown@4.1
Codec ID : V_MPEG4/ISO/AVC
Duration : 1h 49mn
Bit rate : 11.0 Mbps
Width : 1 920 pixels
Height : 800 pixels
Display aspect ratio : 2.40:1
Frame rate : 23.976 fps
Color space : YUV
Chroma subsampling : 4:2:0
Bit depth : 8 bits
Scan type : Progressive
Bits/(Pixel*Frame) : 0.298
Stream size : 8.15 GiB (83%)
Title : The.Sorcerer's.Apprentice.2010.D.BDRip.1080p.[uniongang.tv]
Writing library : x264 core 102 r1666 d058f37
Encoding settings : cabac=1 / ref=5 / deblock=1:-3:-3 / analyse=0x3:0x113 / me=umh / subme=10 / psy=1 / psy_rd=1.05:0.10 / mixed_ref=1 / me_range=48 / chroma_me=1 / trellis=2 / 8x8dct=1 / cqm=2 / deadzone=21,11 / fast_pskip=0 / chroma_qp_offset=-2 / threads=12 / sliced_threads=0 / nr=0 / decimate=1 / interlaced=0 / constrained_intra=0 / bframes=6 / b_pyramid=2 / b_adapt=2 / b_bias=0 / direct=3 / weightb=1 / open_gop=0 / weightp=2 / keyint=250 / keyint_min=25 / scenecut=40 / intra_refresh=0 / rc_lookahead=50 / rc=2pass / mbtree=1 / bitrate=10963 / ratetol=2.0 / qcomp=0.70 / qpmin=10 / qpmax=51 / qpstep=4 / cplxblur=20.0 / qblur=0.5 / vbv_maxrate=50000 / vbv_bufsize=50000 / ip_ratio=1.40 / aq=1:1.00 / nal_hrd=none
Audio #1
ID : 2
Format : AC-3
Format/Info : Audio Coding 3
Mode extension : CM (complete main)
Codec ID : A_AC3
Duration : 1h 49mn
Bit rate mode : Constant
Bit rate : 384 Kbps
Channel(s) : 6 channels
Channel positions : Front: L C R, Side: L R, LFE
Sampling rate : 48.0 KHz
Stream size : 300 MiB (3%)
Title : AC3 5.1 @ 384 kb/s [Russian DUB]
Language : Russian
Audio #2
ID : 3
Format : DTS
Format/Info : Digital Theater Systems
Codec ID : A_DTS
Duration : 1h 49mn
Bit rate mode : Constant
Bit rate : 1 510 Kbps
Channel(s) : 6 channels
Channel positions : Front: L C R, Side: L R, LFE
Sampling rate : 48.0 KHz
Bit depth : 24 bits
Stream size : 1.15 GiB (12%)
Title : DTS HD 5.1 @ 1510 kb/s [English]
Text #1
ID : 4
Format : UTF-8
Codec ID : S_TEXT/UTF8
Codec ID/Info : UTF-8 Plain Text
Title : Russian SUB
Language : Russian
Text #2
ID : 5
Format : UTF-8
Codec ID : S_TEXT/UTF8
Codec ID/Info : UTF-8 Plain Text
Title : English SUB
скриншот   скриншот   скриншот  
pb.wtf



Скачать Ученик чародея через торрент http://i12.fastpic.ru/big/2010/1118/f8/f7f2045484bbf9cfb791347b52523ef8.png Скачать фильм Ученик чародея через торрент бесплантно в хорошем качестве Описание: Манхэттен, наши дни. Мастер магии Бальтазар Блэйк пытается защитить Нью-Йорк от своего старого врага Максима Хорвата — злобного ... 9.7 10 3
Info! Золотая раздача, скачанное не засчитывается.
Торрент: Зарегистрирован [2010-11-18 17:38] · скачан: 133 раз
Статус: √ проверено
Размер: 9.78 GB
Как cкачать? Как скачать Ученик чародея через торрент | qTorrent

28-11-2019 20:33  

Отключить всю рекламу на сайте

    Дорогой пользователь! Огромная просьба, поблагодарите релизера, оцените раздачу и оставьте свои комментарий, если Вы скачали Ученик чародея через торрент бесплатно! Внесите свою лепту в развитие PiratBit!
    Комментировать посты могут только пользователи прошедшие не сложную регистрацию
    Показать сообщения:    

    Ученик чародея через торрент
    Скачать бесплатно Ученик чародея
    Ученик чародея скачать торрент
    Ученик чародея смотреть онлайн
    Cкачать фильм Ученик чародея бесплатно
    Ученик чародея скачать торрент в хорошем качестве
    Ученик чародея смотреть онлайн бесплатно в хорошем качестве


    Вы не можете начинать темы
    Вы не можете отвечать на сообщения
    Вы не можете редактировать свои сообщения
    Вы не можете удалять свои сообщения
    Вы не можете голосовать в опросах
    Вы не можете прикреплять файлы к сообщениям
    Вы можете скачивать файлы