Ссылка на приватное зеркало нашего сайта всего за 1$. Внимание количество ограничено!!!

2 сезон

iTunes

1 сезон

1

iTunes

iTunes

iTunes

1 сезон

RePack

30

ИГРА 18+

pack

ВАЖНО

!!Акция!!

Alien_RageХит недели

RePack

MK11
pack

Забери бонус

RePack

jed

!!Акция!!

Alien_Rage

RePack

fifa19

RePack

Assassins Creed: Odyssey

RePack

NEED FOR SPEED™ PAYBACK

4 сезон

9 сезон

Бесстыжие 9 сезон

Все сериалы

все сериалы на PB.wtf

RePack

FAR CRY 5
  

Команда Б / Серия 1-20 из 20 (Арман Геворгян) [2018 г., Комедия, WEB-DLRip] pb.wtf

Команда Б через торрент pb.wtf

Размер: 6.61 GB | Добавлен: 2 года 7 мес. назад | Торрент скачан:68 раз
Скачать  

12-02-2018 16:19 Команда Б Скачать торрент  

Команда Б / Серия 1- 20из 20
Год выпуска: 2018
Страна: Россия
Жанр: Комедия
Продолжительность: 20 х 00:25:00
Субтитры: нет

Режиссер: Арман Геворгян

В ролях: Владимир Яглыч, Михаил Ефремов, Настасья Самбурская, Оскар Кучера, Карина Андоленко, Ян Цапник, Михаил Тарабукин, Валерия Федорович, Сергей Баталов, Борис Дергачев, Евгения Ахременко, Даниил Муравьев-Изотов, Павел Крайнов

Описание: Генерал Брусницын, спасая племянника Мишу от тюрьмы, поручает ему возглавить команду обычных ребят, отобранных для полёта на Луну — команду «Б». Он уверен, что эксперимент провалится и «лузеры» никуда не полетят. Но пилот-экстремал Миша, научный сотрудник Света, солдат в юбке Саша, красавчик-качок Егор и врач-неудачник Стас готовы обойти профессионалов из команды «А» и покорить космос.

Качество: WEB-DLRip
Формат: AVI
Видео кодек: XviD
Аудио кодек: MP3
Видео: 720x400 (1.57:1), 25 fps, XviD build 50 ~1800 kbps avg, 0.23 bit/pixel
Аудио#1: 48 kHz, MPEG Layer 3, 2 ch, ~128.00 kbps avg
скриншот   скриншот   скриншот   скриншот  

General
Complete name : H:\релизы.торрентфайл\Команда(2018)\Komanda.B.01.WEB-DLRip.[www.riperam.org].avi
Format : AVI
Format/Info : Audio Video Interleave
File size : 381 MiB
Duration : 27mn 31s
Overall bit rate : 1 938 Kbps
Writing application : VirtualDubMod 1.5.10.3 | www.virtualdub-fr.org || (build 2550/release)
Writing library : VirtualDubMod build 2550/release

Video
ID : 0
Format : MPEG-4 Visual
Format profile : Advanced Simple@L5
Format settings, BVOP : 2
Format settings, QPel : No
Format settings, GMC : No warppoints
Format settings, Matrix : Default (H.263)
Codec ID : XVID
Codec ID/Hint : XviD
Duration : 27mn 31s
Bit rate : 1 800 Kbps
Width : 720 pixels
Height : 400 pixels
Display aspect ratio : 16:9
Frame rate : 25.000 fps
Color space : YUV
Chroma subsampling : 4:2:0
Bit depth : 8 bits
Scan type : Progressive
Compression mode : Lossy
Bits/(Pixel*Frame) : 0.250
Stream size : 354 MiB (93%)
Writing library : XviD 1.2.1 (UTC 2008-12-04)

Audio
ID : 1
Format : MPEG Audio
Format version : Version 1
Format profile : Layer 3
Mode : Joint stereo
Mode extension : MS Stereo
Codec ID : 55
Codec ID/Hint : MP3
Duration : 27mn 31s
Bit rate mode : Constant
Bit rate : 128 Kbps
Channel(s) : 2 channels
Sampling rate : 48.0 KHz
Compression mode : Lossy
Stream size : 25.2 MiB (7%)
Alignment : Aligned on interleaves
Interleave, duration : 40 ms (1.00 video frame)
Interleave, preload duration : 504 ms
Writing library : LAME3.99r
Encoding settings : -m j -V 4 -q 9 -lowpass 17 -b 128

Внимание! Раздача ведётся путём добавления новых серий; при каждом добавлении создётся новый торрент. Чтобы начать докачку новой серии, пользователям необходимо сделать следующее:
  • Остановить скачивание,
  • Удалить старый торрент у себя из клиента (старые серии удалять не надо),
  • Скачать новый торрент и запустить его у себя в клиенте вместо старого, при этом указать клиенту путь в старую папку куда и должно происходить скачивание новых серий.
Ваш клиент при этом должен произвести хеширование (проверку) старой папки (если не производит сам - помогите ему сделать это), и будет докачивать только те серии которых у вас ещё нет. Старые серии при этом не удаляются, а продолжают раздаваться!

Eсли вы уже удалили старые серии, то предотвратить повторную закачку старых серий можно, отжав галочку в соответсвующих местах при запуске нового торрента. По возможности, желательно не удалять старые серии как можно дольше чтобы релизёр не столько продолжал раздавать старые серии, а смог сконцентрироваться на новых.
pb.wtf



Скачать Команда Б через торрент http://i99.fastpic.ru/big/2018/0212/2d/d1b69b26266f1006f25d9306ab223c2d.jpg Скачать фильм Команда Б через торрент бесплантно в хорошем качестве Описание: Генерал Брусницын, спасая племянника Мишу от тюрьмы, поручает ему возглавить команду обычных ребят, отобранных для полёта на Луну ... 10 10 12
Торрент: Зарегистрирован [2018-03-13 04:02] · скачан: 68 раз
Статус: √ проверено
Размер: 6.61 GB
Как cкачать? Как скачать Команда Б через торрент | qTorrent

% Раздел Тема Автор DL S | L
Наши сериалы [ 5.97 GB ] Команда Б / Сезон: 1 / Серии 1-20 из 20 [2017 WEB-DLRip] GEKADOL Скачать
1 | 0
Наши сериалы [ 18.04 GB ] Команда Б / Сезон: 1 / Серии: 1-20 из 20 [2018 WEB-DL 1080p] bober100 Скачать
1 | 0
Наши сериалы [ 9.39 GB ] Команда Б / Сезон: 1 / Серии: 1-20 из 20 [2018 WEB-DL 720p] bober100 Скачать
1 | 0
Наши сериалы [ 6.11 GB ] Команда Б / Сезон: 1 / Серии: 1-20 из 20 [2018 WEB-DLRip-AVC] bober100 Скачать
1 | 0


Последний раз редактировалось: oleg8 (2018-03-13 04:02), всего редактировалось 5 раз(а)

28-11-2019 20:33  

Отключить всю рекламу на сайте

12-02-2018 16:48 Команда Б Скачать торрент  

кто смотрел ? норм?pb.wtf



05-03-2018 12:12 Команда Б Скачать торрент  

бредpb.wtf



13-03-2018 04:03 Команда Б Скачать торрент  

Сезон завершен.pb.wtf



    Дорогой пользователь! Огромная просьба, поблагодарите релизера, оцените раздачу и оставьте свои комментарий, если Вы скачали Команда Б через торрент бесплатно! Внесите свою лепту в развитие PiratBit!
    Комментировать посты могут только пользователи прошедшие не сложную регистрацию
    Показать сообщения:    

    Команда Б через торрент
    Скачать бесплатно Команда Б
    Команда Б скачать торрент
    Команда Б смотреть онлайн
    Cкачать фильм Команда Б бесплатно
    Команда Б скачать торрент в хорошем качестве
    Команда Б смотреть онлайн бесплатно в хорошем качестве


    Вы не можете начинать темы
    Вы не можете отвечать на сообщения
    Вы не можете редактировать свои сообщения
    Вы не можете удалять свои сообщения
    Вы не можете голосовать в опросах
    Вы не можете прикреплять файлы к сообщениям
    Вы можете скачивать файлы