Ссылка на приватное зеркало всего за 1$. Внимание количество ограничено!!!

OK

1+1

iTunes

мы

OK

1

WEB-DLRip

Джокер

Пифагор

Ведьмак / The Witcher сериал

Лицензия

ПШазам

ОК

Оно 2

iTunes

30
pack

Вам бонус

ВАЖНО

!!Акция!!

Alien_RageХит недели

RePack

Resident Evil 21

ИГРА 18+

pack

RePack

jed

!!Акция!!

Alien_Rage

RePack

fifa19

RePack

Assassins Creed: Odyssey

RePack

NEED FOR SPEED™ PAYBACK

4 сезон

9 сезон

Бесстыжие 9 сезон

Все сериалы

все сериалы на PB.wtf

RePack

FAR CRY 5
  

Плюшевый монстр / Lino: Uma Aventura de Sete Vidas (Рафаэль Рибас) [2017, мультфильм, семейный, WEB-DLRip от R.G. Resident] Дубляж - [Лицензия / iTunes] pb.wtf

Плюшевый монстр через торрент pb.wtf

Раздают: 2 [ 0 KB/s ]
Размер: 1.37 GB | Добавлен: 1 год 10 мес. назад | Торрент скачан:476 раз
Скачать  

01-03-2018 07:30 Плюшевый монстр Скачать торрент  

Плюшевый монстр / Lino: Uma Aventura de Sete Vidas
««Поймай удачу за хвост!»»

Год выпуска: 2017
Страна: Бразилия
Жанр: мультфильм, семейный
Продолжительность: 01:32:25
Перевод: Дубляж - [Лицензия / iTunes]
Режиссер: Рафаэль Рибас
В ролях:

Селтон Мелу (Lino, озвучка), Дира Паис (Janine, озвучка), Паола Оливейра (Patty, озвучка), Луис Карлос Де Мораес (Don Leon, озвучка), Гильерме Лопес (Victor, озвучка), Хелио Рибейро (Mestre Henry Topper, озвучка), Лупа Мабузе (Osmar, озвучка), Лео Рабело (Mellos, озвучка), Марсело Чепа (Chefe da Polícia, озвучка), Рейнальдо Родригес (Vigia do Zoológico, озвучка), Паоло Бернардо (Porteiro do Zoológico), Фил (Funcionário, озвучка)
Описание:
Жизнь Лино - молодого парня, работающего аниматором в детском саду, - кажется беспросветной: его дом того и гляди развалится, девушки его не любят, а на работе целый день терроризируют дети. Отчаявшись, он решается обратиться к одному незадачливому магу, который обещает найти выход из любой ситуации. И маг находит способ кардинально изменить жизнь Лино. Однако с колдовством что-то пошло не так, и Лино превратился в огромного кота-монстра. Как всё вернуть назад и стать счастливым?
Рейтинг:

Качество: WEB-DLRip
Формат: AVI
Видео: XviD, 688x384 (16:9), 1723 kbps, 24 fps, 0,272 bpp
Аудио: AC3 / 5.1 / 48 kHz / 384 kbps /

General
Complete name : E:\Plushevy.monster.2017.WEB-DLRip.R.G.Resident.avi
Format : AVI
Format/Info : Audio Video Interleave
File size : 1.37 GiB
Duration : 1 h 32 min
Overall bit rate : 2 117 kb/s
Writing application : VirtualDubModRus 1.5.10.2 (build 2542/release)
Writing library : VirtualDubMod build 2542/release

Video
ID : 0
Format : MPEG-4 Visual
Format profile : Advanced Simple@L5
Format settings, BVOP : 2
Format settings, QPel : No
Format settings, GMC : No warppoints
Format settings, Matrix : Custom
Codec ID : XVID
Codec ID/Hint : XviD
Duration : 1 h 32 min
Bit rate : 1 723 kb/s
Width : 688 pixels
Height : 384 pixels
Display aspect ratio : 16:9
Frame rate : 24.000 FPS
Color space : YUV
Chroma subsampling : 4:2:0
Bit depth : 8 bits
Scan type : Progressive
Compression mode : Lossy
Bits/(Pixel*Frame) : 0.272
Stream size : 1.11 GiB (81%)
Writing library : XviD 73

Audio
ID : 1
Format : AC-3
Format/Info : Audio Coding 3
Mode extension : CM (complete main)
Format settings, Endianness : Big
Codec ID : 2000
Duration : 1 h 32 min
Bit rate mode : Constant
Bit rate : 384 kb/s
Channel(s) : 6 channels
Channel positions : Front: L C R, Side: L R, LFE
Sampling rate : 48.0 kHz
Frame rate : 31.250 FPS (1536 spf)
Compression mode : Lossy
Stream size : 254 MiB (18%)
Alignment : Split accross interleaves
Interleave, duration : 42 ms (1.00 video frame)
Interleave, preload duration : 500 ms
pb.wtf



Скачать Плюшевый монстр через торрент http://i77.fastpic.ru/big/2016/0417/a7/808a646271c761f7c7d87df3d366b3a7.png Скачать фильм Плюшевый монстр через торрент бесплантно в хорошем качестве Описание: Жизнь Лино - молодого парня, работающего аниматором в детском саду, - кажется беспросветной: его дом того и гляди развалится, ... 9.4 10 16
Info! Золотая раздача, скачанное не засчитывается.
Торрент: Зарегистрирован [2018-03-01 07:30] · скачан: 476 раз
Статус: √ проверено
Размер: 1.37 GB
Как cкачать? Как скачать Плюшевый монстр через торрент | qTorrent

% Раздел Тема Автор DL S | L
Иностранные мультфильмы [ 1.46 GB ] Плюшевый монстр / Lino: Uma Aventura de Sete Vidas [2017 мультфильм WEB-DLRip] bober100 Скачать
2 | 0
Зарубежные Мультфильмы (WEB-DL 720p, 1080p) [ 3.56 GB ] Плюшевый монстр / Lino: Uma Aventura de Sete Vidas [2017 мультфильм WEB-DL 1080p] bober100 Скачать
2 | 0
Зарубежные Мультфильмы (WEB-DL 720p, 1080p) [ 2.85 GB ] Плюшевый монстр / Lino: Uma Aventura de Sete Vidas [2017 мультфильм WEB-DL 720p] killermax2013 Скачать
17 | 0

28-11-2019 20:33  

Отключить всю рекламу на сайте

    Дорогой пользователь! Огромная просьба, поблагодарите релизера, оцените раздачу и оставьте свои комментарий, если Вы скачали Плюшевый монстр через торрент бесплатно! Внесите свою лепту в развитие PiratBit!
    Комментировать посты могут только пользователи прошедшие не сложную регистрацию
    Показать сообщения:    

    Плюшевый монстр через торрент
    Скачать бесплатно Плюшевый монстр
    Плюшевый монстр скачать торрент
    Плюшевый монстр смотреть онлайн
    Cкачать фильм Плюшевый монстр бесплатно
    Плюшевый монстр скачать торрент в хорошем качестве
    Плюшевый монстр смотреть онлайн бесплатно в хорошем качестве


    Вы не можете начинать темы
    Вы не можете отвечать на сообщения
    Вы не можете редактировать свои сообщения
    Вы не можете удалять свои сообщения
    Вы не можете голосовать в опросах
    Вы не можете прикреплять файлы к сообщениям
    Вы можете скачивать файлы