Ссылка на приватное зеркало всего за 1$. Внимание количество ограничено!!!

OK

1+1

iTunes

мы

OK

1

WEB-DLRip

Джокер

Пифагор

Ведьмак / The Witcher сериал

iTunes

ПШазам

ОК

Оно 2

iTunes

30
pack

Вам бонус

ВАЖНО

!!Акция!!

Alien_RageХит недели

RePack

Resident Evil 21

ИГРА 18+

pack

RePack

jed

RePack

fifa19

RePack

Assassins Creed: Odyssey

RePack

NEED FOR SPEED™ PAYBACK

4 сезон

9 сезон

Бесстыжие 9 сезон

Все сериалы

все сериалы на PB.wtf

RePack

FAR CRY 5
  

Шкатулка Дьявола / Sacrilege (Пол Каталанотто) [2017, ужасы, WEB-DL 720p] MVO [КОЛОБОК] pb.wtf

Шкатулка Дьявола через торрент pb.wtf

Размер: 3.27 GB | Добавлен: 1 год 10 мес. назад | Торрент скачан:56 раз
Скачать  

01-03-2018 07:50 Шкатулка Дьявола Скачать торрент  

Шкатулка Дьявола / SacrilegeГод выпуска: 2017
Страна: США
Жанр: ужасы
Продолжительность: 01:36:58
Перевод: Любительский (многоголосый) - [КОЛОБОК]
Субтитры: отсутствуют

Режиссер: Пол Каталанотто

rating

В ролях:

Ким Баптисте, Меган Фью, Дженнифер Формен, Чад Грэхэм, Даниэль Леви, Грег Пирсон, Джордан Сэллоум, Кармен Тонри, Кристин Тонри

Описание:

После того, как Джессика дарит своей подруге Сэм музыкальную шкатулку, купленную на дворовой распродаже, в доме начинают происходить странные вещи. Шкатулка постоянно меняет местонахождение, а Сэм слышит детский голос, призывающий ее покончить с собой. После череды ужасных событий Джессика понимает, что помочь им могут только профессиональные охотники за приведениями.

Качество: WEB-DL 720p
Формат: MKV

Видео: MPEG-4 AVC, 4441 kb/s, 1280x720
Аудио#1: Русский (AC3, 2 ch, 384 Кбит/с)
скриншот  скриншот  скриншот  

Общее
Уникальный идентификатор : 239902337459063982551441993252675161719 (0xB47B82717B43B3B0B7F3EA6F9BCE8E77)
Полное имя : D:\Sacrilege.2017.P.WEB-DL.72Op.mkv
Формат : Matroska
Версия формата : Version 2
Размер файла : 3,27 Гбайт
Продолжительность : 1 ч. 36 м.
Режим общего битрейта : Переменный
Общий поток : 4827 Кбит/сек
Дата кодирования : UTC 2018-02-28 12:04:04
Программа кодирования : mkvmerge v8.3.0 ('Over the Horizon') 64bit
Библиотека кодирования : libebml v1.3.1 + libmatroska v1.4.2

Видео
Идентификатор : 1
Формат : AVC
Формат/Информация : Advanced Video Codec
Профиль формата : High@L4.1
Параметр CABAC формата : Да
Параметр ReFrames формата : 4 кадра
Идентификатор кодека : V_MPEG4/ISO/AVC
Продолжительность : 1 ч. 36 м.
Вид битрейта : Переменный
Битрейт : 4441 Кбит/сек
Максимальный битрейт : 5000 Кбит/сек
Ширина : 1280 пикселей
Высота : 720 пикселей
Соотношение сторон : 16:9
Режим частоты кадров : Постоянный
Частота кадров : 23,976 (24000/1001) кадра/сек
Стандарт вещания : Component
Цветовое пространство : YUV
Субдискретизация насыщенности : 4:2:0
Битовая глубина : 8 бит
Тип развёртки : Прогрессивная
Бит/(Пиксели*Кадры) : 0.197
Размер потока : 2,94 Гбайт (90%)
Default : Да
Forced : Нет
Цветовой диапазон : Limited
Основные цвета : BT.709
Характеристики трансфера : BT.709
Коэффициенты матрицы : BT.709

Аудио
Идентификатор : 2
Формат : AC-3
Формат/Информация : Audio Coding 3
Расширение режима : CM (complete main)
Параметр Endianness формата : Big
Идентификатор кодека : A_AC3
Продолжительность : 1 ч. 36 м.
Вид битрейта : Постоянный
Битрейт : 384 Кбит/сек
Каналы : 2 канала
Расположение каналов : Front: L R
Частота : 48,0 КГц
Частота кадров : 31,250 кадров/сек (1536 spf)
Метод сжатия : С потерями
Размер потока : 266 Мбайт (8%)
Default : Да
Forced : Нет

pb.wtf



Скачать Шкатулка Дьявола через торрент http://img12.lostpic.net/2018/03/01/dc4e36fd84188118f0c62fc575700355.jpg Скачать фильм Шкатулка Дьявола через торрент бесплантно в хорошем качестве Описание: После того, как Джессика дарит своей подруге Сэм музыкальную шкатулку, купленную на дворовой распродаже, в доме начинают ... 7.8 10 4
Торрент: Зарегистрирован [2018-03-01 07:50] · скачан: 56 раз
Статус: T временная
Размер: 3.27 GB
Как cкачать? Как скачать Шкатулка Дьявола через торрент | qTorrent

% Раздел Тема Автор DL S | L
T Фильмы (мультфильмы) cо спонсором показа (Новинки AVI/MKV) [ 1.37 GB ] Шкатулка Дьявола / Sacrilege [2017 WEB-DLRip] MVO [КОЛОБОК] bober100 Скачать
1 | 0

28-11-2019 20:33  

Отключить всю рекламу на сайте


    Дорогой пользователь! Огромная просьба, поблагодарите релизера, оцените раздачу и оставьте свои комментарий, если Вы скачали Шкатулка Дьявола через торрент бесплатно! Внесите свою лепту в развитие PiratBit!
    Комментировать посты могут только пользователи прошедшие не сложную регистрацию
    Показать сообщения:    

    Шкатулка Дьявола через торрент
    Скачать бесплатно Шкатулка Дьявола
    Шкатулка Дьявола скачать торрент
    Шкатулка Дьявола смотреть онлайн
    Cкачать фильм Шкатулка Дьявола бесплатно
    Шкатулка Дьявола скачать торрент в хорошем качестве
    Шкатулка Дьявола смотреть онлайн бесплатно в хорошем качестве


    Вы не можете начинать темы
    Вы не можете отвечать на сообщения
    Вы не можете редактировать свои сообщения
    Вы не можете удалять свои сообщения
    Вы не можете голосовать в опросах
    Вы не можете прикреплять файлы к сообщениям
    Вы можете скачивать файлы