Ссылка на приватное зеркало всего за 1$. Внимание количество ограничено!!!

iTunes

iTunes

iTunes

1

iTunes

iTunes

iTunes

WEBRip

iTunes

30
pack

$ от Little Big

ВАЖНО

!!Акция!!

Alien_RageХит недели

RePack

Resident Evil 21

ИГРА 18+

pack

RePack

jed

!!Акция!!

Alien_Rage

RePack

fifa19

RePack

Assassins Creed: Odyssey

RePack

NEED FOR SPEED™ PAYBACK

4 сезон

9 сезон

Бесстыжие 9 сезон

Все сериалы

все сериалы на PB.wtf

RePack

FAR CRY 5
  

Дьявольское древо: Корень зла / Devil's Tree: Rooted Evil (Крис Алонсо, Джошуа Луис) [2018, ужасы, триллер, WEB-DL 720p] MVO [КОЛОБОК] pb.wtf

Дьявольское древо: Корень зла через торрент pb.wtf

Размер: 2.54 GB | Добавлен: 2 года 5 мес. назад | Торрент скачан:68 раз
Скачать  

01-03-2018 08:02 Дьявольское древо: Корень зла Скачать торрент  

Дьявольское древо: Корень зла / Devil's Tree: Rooted EvilГод выпуска: 2018
Страна: США
Жанр: ужасы, триллер
Продолжительность: 01:15:41
Перевод: Любительский (многоголосый) - [КОЛОБОК]
Субтитры: отсутствуют

Режиссер: Крис Алонсо, Джошуа Луис

rating

В ролях:

Мэдди Керли, Майкл Рэй Дэвис, Эдди Каулукуки, Роберто Эскобар, Эрин Собственный, Шэрон Пфайфер, Логан Гамбилл, Дэн Крисафулли, Николетта Хансен, Дэвид Райзор

Описание:

История о начинающей журналистке Саманте, которая узнает о дереве с мрачной историей. Она, сама преследуемая демонами прошлого, выясняет, в чем тайна зловещего дерева. Фильм, вдохновлен реальными событиями. Так, например, настоящее дерево и по сей день стоит на своем месте.

Качество: WEB-DL 720p
Формат: MKV

Видео: MPEG-4 AVC, 4414 kb/s, 1280x548
Аудио#1: Русский (AC3, 2 ch, 384 Кбит/с)
скриншот  скриншот  скриншот  

Общее
Уникальный идентификатор : 237854603109061885547671147226647282854 (0xB2F1215850471762962E4E40F318C4A6)
Полное имя : D:\Devils Tree Rooted Evil 2018.P.WEB-DL.72Op.mkv
Формат : Matroska
Версия формата : Version 2
Размер файла : 2,54 Гбайт
Продолжительность : 1 ч. 15 м.
Режим общего битрейта : Переменный
Общий поток : 4800 Кбит/сек
Дата кодирования : UTC 2018-02-28 02:41:18
Программа кодирования : mkvmerge v8.3.0 ('Over the Horizon') 64bit
Библиотека кодирования : libebml v1.3.1 + libmatroska v1.4.2

Видео
Идентификатор : 1
Формат : AVC
Формат/Информация : Advanced Video Codec
Профиль формата : High@L4.1
Параметр CABAC формата : Да
Параметр ReFrames формата : 4 кадра
Идентификатор кодека : V_MPEG4/ISO/AVC
Продолжительность : 1 ч. 15 м.
Вид битрейта : Переменный
Битрейт : 4414 Кбит/сек
Максимальный битрейт : 5000 Кбит/сек
Ширина : 1280 пикселей
Высота : 548 пикселей
Соотношение сторон : 2,35:1
Режим частоты кадров : Постоянный
Частота кадров : 23,976 (24000/1001) кадра/сек
Стандарт вещания : Component
Цветовое пространство : YUV
Субдискретизация насыщенности : 4:2:0
Битовая глубина : 8 бит
Тип развёртки : Прогрессивная
Бит/(Пиксели*Кадры) : 0.257
Размер потока : 2,28 Гбайт (90%)
Default : Да
Forced : Нет
Цветовой диапазон : Limited
Основные цвета : BT.709
Характеристики трансфера : BT.709
Коэффициенты матрицы : BT.709

Аудио
Идентификатор : 2
Формат : AC-3
Формат/Информация : Audio Coding 3
Расширение режима : CM (complete main)
Параметр Endianness формата : Big
Идентификатор кодека : A_AC3
Продолжительность : 1 ч. 15 м.
Вид битрейта : Постоянный
Битрейт : 384 Кбит/сек
Каналы : 2 канала
Расположение каналов : Front: L R
Частота : 48,0 КГц
Частота кадров : 31,250 кадров/сек (1536 spf)
Метод сжатия : С потерями
Размер потока : 208 Мбайт (8%)
Default : Да
Forced : Нет

pb.wtf



Скачать Дьявольское древо: Корень зла через торрент http://img12.lostpic.net/2018/03/01/cc20263e6543e3171207ddc95b170c7b.jpg Скачать фильм Дьявольское древо: Корень зла через торрент бесплантно в хорошем качестве Описание: История о начинающей журналистке Саманте, которая узнает о дереве с мрачной историей. Она, сама преследуемая демонами прошлого, ... 10 10 2
Торрент: Зарегистрирован [2018-03-01 08:02] · скачан: 68 раз
Статус: T временная
Размер: 2.54 GB
Как cкачать? Как скачать Дьявольское древо: Корень зла через торрент | qTorrent

28-11-2019 20:33  

Отключить всю рекламу на сайте

    Дорогой пользователь! Огромная просьба, поблагодарите релизера, оцените раздачу и оставьте свои комментарий, если Вы скачали Дьявольское древо: Корень зла через торрент бесплатно! Внесите свою лепту в развитие PiratBit!
    Комментировать посты могут только пользователи прошедшие не сложную регистрацию
    Показать сообщения:    

    Дьявольское древо: Корень зла через торрент
    Скачать бесплатно Дьявольское древо: Корень зла
    Дьявольское древо: Корень зла скачать торрент
    Дьявольское древо: Корень зла смотреть онлайн
    Cкачать фильм Дьявольское древо: Корень зла бесплатно
    Дьявольское древо: Корень зла скачать торрент в хорошем качестве
    Дьявольское древо: Корень зла смотреть онлайн бесплатно в хорошем качестве


    Вы не можете начинать темы
    Вы не можете отвечать на сообщения
    Вы не можете редактировать свои сообщения
    Вы не можете удалять свои сообщения
    Вы не можете голосовать в опросах
    Вы не можете прикреплять файлы к сообщениям
    Вы можете скачивать файлы