Ссылка на приватное зеркало нашего сайта всего за 1$. Внимание количество ограничено!!!

2 сезон

iTunes

1 сезон

1

2 сезон

2 сезон

iTunes

1 сезон

RePack

30

Ultimate

ВАЖНО

ИГРА 18+

pack

RePack

MK11
pack

Забери бонус

RePack

jed

!!Акция!!

Alien_Rage

RePack

fifa19

RePack

Assassins Creed: Odyssey

RePack

NEED FOR SPEED™ PAYBACK

4 сезон

9 сезон

Бесстыжие 9 сезон

Все сериалы

все сериалы на PB.wtf

RePack

FAR CRY 5
  

Grand Finale - Descent With Modification - 2018/ FLAC/ image +.cue/ lossless/ Symphonic Power Metal pb.wtf

Grand Finale - Descent With Modification - 2018 через торрент pb.wtf

Размер: 416 MB | Добавлен: 2 года 8 мес. назад | Торрент скачан:10 раз
Скачать  

01-03-2018 08:14 Grand Finale - Descent With Modification - 2018 Скачать торрент  


Grand Finale - Descent With Modification


Год издания: 2018
Страна: Japan
Жанр: Symphonic Power Metal
Продолжительность: 00:52:28
Лейбл издания: Repentless Records
Страна-выпуска диска: Japan
Номер по каталогу: RETS-003
Формат: FLAC
Битрейт аудио: Lossless
Тип рипа: image +.cue
Наличие сканов в содержимом раздачи: да


01. The Master Of My Fate (4:39)
02. Fanatic (4:56)
03. Kodoku No Hana (Lonely Flower) (5:49)
04. Nobody Knows (6:51)
05. Promise (5:00)
06. Innocence (5:19)
07. With Wolves (6:23)
08. Perfect World (5:03)
09. Now Or Never (6:27)
10. Epilogue (2:02)

Код:

Exact Audio Copy V1.3 from 2. September 2016

EAC extraction logfile from 8. February 2018, 11:29

Grand Finale / Descent With Modification

Used drive  : ATAPI   iHAS122   W   Adapter: 2  ID: 0

Read mode               : Secure
Utilize accurate stream : Yes
Defeat audio cache      : Yes
Make use of C2 pointers : No

Read offset correction                      : 48
Overread into Lead-In and Lead-Out          : No
Fill up missing offset samples with silence : Yes
Delete leading and trailing silent blocks   : No
Null samples used in CRC calculations       : Yes
Used interface                              : Installed external ASPI interface

Used output format              : User Defined Encoder
Selected bitrate                : 1024 kBit/s
Quality                         : High
Add ID3 tag                     : No
Command line compressor         : C:\Program Files\FLAC\flac.exe
Additional command line options : -V -8 -T "Date=%year%" -T "Genre=%genre%" -T"COMMENT=Ripped by  Ilijan [MeTaLMaDNeSS.TeaM]" -8 -V %source%

TOC of the extracted CD

     Track |   Start  |  Length  | Start sector | End sector
    ---------------------------------------------------------
        1  |  0:00.00 |  4:38.63 |         0    |    20912
        2  |  4:38.63 |  4:56.32 |     20913    |    43144
        3  |  9:35.20 |  5:49.29 |     43145    |    69348
        4  | 15:24.49 |  6:50.46 |     69349    |   100144
        5  | 22:15.20 |  4:59.41 |    100145    |   122610
        6  | 27:14.61 |  5:18.54 |    122611    |   146514
        7  | 32:33.40 |  6:22.65 |    146515    |   175229
        8  | 38:56.30 |  5:02.69 |    175230    |   197948
        9  | 43:59.24 |  6:26.50 |    197949    |   226948
       10  | 50:25.74 |  2:01.54 |    226949    |   236077

Range status and errors

Selected range

     Filename D:\Vknish + Devastator + ungern666 = Swolo4 (Download, Upload On Rutracker, DIE!!!)\Grand Finale - Descent With Modification.wav

     Peak level 99.0 %
     Extraction speed 3.7 X
     Range quality 99.9 %
     Test CRC 5145EA17
     Copy CRC 5145EA17
     Copy OK

No errors occurred

AccurateRip summary

Track  1  not present in database
Track  2  not present in database
Track  3  not present in database
Track  4  not present in database
Track  5  not present in database
Track  6  not present in database
Track  7  not present in database
Track  8  not present in database
Track  9  not present in database
Track 10  not present in database

None of the tracks are present in the AccurateRip database

End of status report

Код:

REM GENRE "Symphonic Power Metal"
REM DATE 2018
REM DISCID 8B0C4B0A
REM COMMENT "ExactAudioCopy v1.3"
PERFORMER "Grand Finale"
TITLE "Descent With Modification"
FILE "Grand Finale - Descent With Modification.flac" WAVE
  TRACK 01 AUDIO
    TITLE "The Master Of My Fate"
    PERFORMER "Grand Finale"
    INDEX 01 00:00:00
  TRACK 02 AUDIO
    TITLE "Fanatic"
    PERFORMER "Grand Finale"
    INDEX 01 04:38:63
  TRACK 03 AUDIO
    TITLE "Kodoku No Hana (Lonely Flower)"
    PERFORMER "Grand Finale"
    INDEX 01 09:35:20
  TRACK 04 AUDIO
    TITLE "Nobody Knows"
    PERFORMER "Grand Finale"
    INDEX 01 15:24:49
  TRACK 05 AUDIO
    TITLE "Promise"
    PERFORMER "Grand Finale"
    INDEX 01 22:15:20
  TRACK 06 AUDIO
    TITLE "Innocence"
    PERFORMER "Grand Finale"
    INDEX 01 27:14:61
  TRACK 07 AUDIO
    TITLE "With Wolves"
    PERFORMER "Grand Finale"
    INDEX 01 32:33:40
  TRACK 08 AUDIO
    TITLE "Perfect World"
    PERFORMER "Grand Finale"
    INDEX 01 38:56:30
  TRACK 09 AUDIO
    TITLE "Now Or Never"
    PERFORMER "Grand Finale"
    INDEX 01 43:59:24
  TRACK 10 AUDIO
    TITLE "Epilogue"
    PERFORMER "Grand Finale"
    INDEX 01 50:25:74




pb.wtf



Скачать Grand Finale - Descent With Modification - 2018 через торрент http://i99.fastpic.ru/big/2018/0227/27/7553699c9b6550e07a0714b35a462427.png Скачать фильм Grand Finale - Descent With Modification - 2018через торрент бесплантно в хорошем качестве Трэклист The Master Of My Fate (4:39) Fanatic (4:56) Kodoku No Hana (Lonely Flower) (5:49) Nobody Knows (6:51) ... 10 10 1
Торрент: Зарегистрирован [2018-03-01 08:14] · скачан: 10 раз
Статус: √ проверено
Размер: 416 MB
Как cкачать? Как скачать Grand Finale - Descent With Modification - 2018 через торрент | qTorrent

28-11-2019 20:33  

Отключить всю рекламу на сайте

    Дорогой пользователь! Огромная просьба, поблагодарите релизера, оцените раздачу и оставьте свои комментарий, если Вы скачали Grand Finale - Descent With Modification - 2018 через торрент бесплатно! Внесите свою лепту в развитие PiratBit!
    Комментировать посты могут только пользователи прошедшие не сложную регистрацию
    Показать сообщения:    

    Grand Finale - Descent With Modification - 2018 через торрент
    Скачать бесплатно Grand Finale - Descent With Modification - 2018
    Grand Finale - Descent With Modification - 2018 скачать торрент
    Grand Finale - Descent With Modification - 2018 смотреть онлайн
    Cкачать фильм Grand Finale - Descent With Modification - 2018 бесплатно
    Grand Finale - Descent With Modification - 2018 скачать торрент в хорошем качестве
    Grand Finale - Descent With Modification - 2018 смотреть онлайн бесплатно в хорошем качестве


    Вы не можете начинать темы
    Вы не можете отвечать на сообщения
    Вы не можете редактировать свои сообщения
    Вы не можете удалять свои сообщения
    Вы не можете голосовать в опросах
    Вы не можете прикреплять файлы к сообщениям
    Вы можете скачивать файлы