Ссылка на приватное зеркало нашего сайта всего за 1$. Внимание количество ограничено!!!

2 сезон

iTunes

1 сезон

1

2 сезон

2 сезон

iTunes

1 сезон

RePack

30

Ultimate

ВАЖНО

ИГРА 18+

pack

RePack

MK11
pack

Забери бонус

RePack

jed

!!Акция!!

Alien_Rage

RePack

fifa19

RePack

Assassins Creed: Odyssey

RePack

NEED FOR SPEED™ PAYBACK

4 сезон

9 сезон

Бесстыжие 9 сезон

Все сериалы

все сериалы на PB.wtf

RePack

FAR CRY 5
  

Evertale - The Great Brotherwar (Digipak) - 2017/ FLAC/ image +.cue/ lossless/ Power Metal pb.wtf

Evertale - The Great Brotherwar через торрент pb.wtf

Размер: 530 MB | Добавлен: 2 года 9 мес. назад | Торрент скачан:5 раз
Скачать  

01-03-2018 08:16 Evertale - The Great Brotherwar Скачать торрент  


Evertale - The Great Brotherwar (Digipak)


Год издания: 2017
Страна: Germany
Жанр: Power Metal
Продолжительность: 00:58:14
Лейбл издания: NoiseArt Records
Страна-выпуска диска: EU
Номер по каталогу: NARCD070DP
Формат: FLAC
Битрейт аудио: Lossless
Тип рипа: image +.cue
Наличие сканов в содержимом раздачи: да


01. Battle for Mankind (1:26)
02. Empire Rising (5:43)
03. The Swarm (6:14)
04. The Joining (0:43)
05. For the King and the Crown (6:55)
06. Oceans of Sand (1:09)
07. The Journey to Iskendria (6:11)
08. Chapter 666 (We are the hammer) (5:30)
09. March of the Nord (0:55)
10. And the Dragons return (6:11)
11. All hail the Crimson King (5:30)
12. The Great Brotherwar (7:30)
13. Van Canto - Take To The Sky (4:17)

Код:

Exact Audio Copy V1.1 from 23. June 2015

EAC extraction logfile from 17. November 2017, 19:35

Evertale / The Great Brotherwar

Used drive  : ATAPI   DVD A  DH16ABSH   Adapter: 2  ID: 0

Read mode               : Secure
Utilize accurate stream : Yes
Defeat audio cache      : Yes
Make use of C2 pointers : No

Read offset correction                      : 6
Overread into Lead-In and Lead-Out          : No
Fill up missing offset samples with silence : Yes
Delete leading and trailing silent blocks   : No
Null samples used in CRC calculations       : Yes
Used interface                              : Installed external ASPI interface

Used output format              : User Defined Encoder
Selected bitrate                : 1024 kBit/s
Quality                         : High
Add ID3 tag                     : No
Command line compressor         : C:\Program Files (x86)\Exact Audio Copy\FLAC\FLAC.EXE
Additional command line options : -V -8 -T "Date=%year%" -T "Genre=%genre%" %source%

TOC of the extracted CD

     Track |   Start  |  Length  | Start sector | End sector
    ---------------------------------------------------------
        1  |  0:00.00 |  1:25.61 |         0    |     6435
        2  |  1:25.61 |  5:43.14 |      6436    |    32174
        3  |  7:09.00 |  6:13.40 |     32175    |    60189
        4  | 13:22.40 |  0:43.32 |     60190    |    63446
        5  | 14:05.72 |  6:54.55 |     63447    |    94551
        6  | 21:00.52 |  1:09.25 |     94552    |    99751
        7  | 22:10.02 |  6:10.39 |     99752    |   127540
        8  | 28:20.41 |  5:29.73 |    127541    |   152288
        9  | 33:50.39 |  0:54.67 |    152289    |   156405
       10  | 34:45.31 |  6:11.02 |    156406    |   184232
       11  | 40:56.33 |  5:30.35 |    184233    |   209017
       12  | 46:26.68 |  7:30.34 |    209018    |   242801
       13  | 53:57.27 |  4:17.06 |    242802    |   262082

Range status and errors

Selected range

     Filename E:\toydollsru\Evertale - The Great Brotherwar.wav

     Peak level 96.2 %
     Extraction speed 8.3 X
     Range quality 100.0 %
     Test CRC 2EE36F13
     Copy CRC 2EE36F13
     Copy OK

No errors occurred

AccurateRip summary

Track  1  not present in database
Track  2  not present in database
Track  3  not present in database
Track  4  not present in database
Track  5  not present in database
Track  6  not present in database
Track  7  not present in database
Track  8  not present in database
Track  9  not present in database
Track 10  not present in database
Track 11  not present in database
Track 12  not present in database
Track 13  not present in database

None of the tracks are present in the AccurateRip database

End of status report

Код:

REM GENRE "Heavy Power Metal"
REM DATE 2017
REM DISCID AB0DA60D
REM COMMENT "ExactAudioCopy v1.1"
PERFORMER "Evertale"
TITLE "The Great Brotherwar"
FILE "Evertale - The Great Brotherwar.flac" WAVE
  TRACK 01 AUDIO
    TITLE "Battle for Mankind"
    PERFORMER "Evertale"
    INDEX 01 00:00:00
  TRACK 02 AUDIO
    TITLE "Empire Rising"
    PERFORMER "Evertale"
    INDEX 01 01:25:61
  TRACK 03 AUDIO
    TITLE "The Swarm"
    PERFORMER "Evertale"
    INDEX 01 07:09:00
  TRACK 04 AUDIO
    TITLE "The Joining"
    PERFORMER "Evertale"
    INDEX 01 13:22:40
  TRACK 05 AUDIO
    TITLE "For the King and the Crown"
    PERFORMER "Evertale"
    INDEX 01 14:05:72
  TRACK 06 AUDIO
    TITLE "Oceans of Sand"
    PERFORMER "Evertale"
    INDEX 01 21:00:52
  TRACK 07 AUDIO
    TITLE "The Journey to Iskendria"
    PERFORMER "Evertale"
    INDEX 01 22:10:02
  TRACK 08 AUDIO
    TITLE "Chapter 666 (We are the hammer)"
    PERFORMER "Evertale"
    INDEX 01 28:20:41
  TRACK 09 AUDIO
    TITLE "March of the Nord"
    PERFORMER "Evertale"
    INDEX 01 33:50:39
  TRACK 10 AUDIO
    TITLE "And the Dragons return"
    PERFORMER "Evertale"
    INDEX 01 34:45:31
  TRACK 11 AUDIO
    TITLE "All hail the Crimson King"
    PERFORMER "Evertale"
    INDEX 01 40:56:33
  TRACK 12 AUDIO
    TITLE "The Great Brotherwar"
    PERFORMER "Evertale"
    INDEX 01 46:26:68
  TRACK 13 AUDIO
    TITLE "Van Canto - Take To The Sky"
    PERFORMER "Evertale"
    INDEX 01 53:57:27




pb.wtf



Скачать Evertale - The Great Brotherwar через торрент http://i101.fastpic.ru/big/2018/0227/6d/eb4440dfb363b14d50e14ecda340a66d.png Скачать фильм Evertale - The Great Brotherwar через торрент бесплантно в хорошем качестве Трэклист Battle for Mankind (1:26) Empire Rising (5:43) The Swarm (6:14) The Joining (0:43) For the King and the ... 10 10 1
Торрент: Зарегистрирован [2018-03-01 08:16] · скачан: 5 раз
Статус: √ проверено
Размер: 530 MB
Как cкачать? Как скачать Evertale - The Great Brotherwar через торрент | qTorrent

28-11-2019 20:33  

Отключить всю рекламу на сайте

    Дорогой пользователь! Огромная просьба, поблагодарите релизера, оцените раздачу и оставьте свои комментарий, если Вы скачали Evertale - The Great Brotherwar через торрент бесплатно! Внесите свою лепту в развитие PiratBit!
    Комментировать посты могут только пользователи прошедшие не сложную регистрацию
    Показать сообщения:    

    Evertale - The Great Brotherwar через торрент
    Скачать бесплатно Evertale - The Great Brotherwar
    Evertale - The Great Brotherwar скачать торрент
    Evertale - The Great Brotherwar смотреть онлайн
    Cкачать фильм Evertale - The Great Brotherwar бесплатно
    Evertale - The Great Brotherwar скачать торрент в хорошем качестве
    Evertale - The Great Brotherwar смотреть онлайн бесплатно в хорошем качестве


    Вы не можете начинать темы
    Вы не можете отвечать на сообщения
    Вы не можете редактировать свои сообщения
    Вы не можете удалять свои сообщения
    Вы не можете голосовать в опросах
    Вы не можете прикреплять файлы к сообщениям
    Вы можете скачивать файлы