Ссылка на приватное зеркало нашего сайта всего за 1$. Внимание количество ограничено!!!

2 сезон

iTunes

1 сезон

1

2 сезон

2 сезон

iTunes

1 сезон

RePack

30

Новинка

ВАЖНО

ИГРА 18+

pack

RePack

MK11
pack

Забери бонус

RePack

jed

!!Акция!!

Alien_Rage

RePack

fifa19

RePack

Assassins Creed: Odyssey

RePack

NEED FOR SPEED™ PAYBACK

4 сезон

9 сезон

Бесстыжие 9 сезон

Все сериалы

все сериалы на PB.wtf

RePack

FAR CRY 5
  

Amberian Dawn - Darkness Of Eternity - 2017/ FLAC/ image +.cue/ lossless/ Symphonic Power Metal pb.wtf

Amberian Dawn - Darkness Of Eternity - 2017 через торрент pb.wtf

Размер: 346 MB | Добавлен: 2 года 8 мес. назад | Торрент скачан:8 раз
Скачать  

01-03-2018 08:20 Amberian Dawn - Darkness Of Eternity - 2017 Скачать торрент  


Amberian Dawn - Darkness Of Eternity


Год издания: 2017
Страна: Finland
Жанр: Symphonic Power Metal
Продолжительность: 00:46:44
Лейбл издания: Napalm Records
Страна-выпуска диска: Germany
Номер по каталогу: NPR 750 DP
Формат: FLAC
Битрейт аудио: Lossless
Тип рипа: image +.cue
Наличие сканов в содержимом раздачи: да


01. I'm The One (4:06)
02. Sky Is Falling (4:05)
03. Dragonflies (5:44)
04. Maybe (3:37)
05. Golden Coins (3:54)
06. Luna My Darling (4:58)
07. Abyss (3:28)
08. Ghostwoman (4:04)
09. Breathe Again (4:52)
10. Symphony Nr. 1, Part 2 - Darkness Of Eternity (4:18)
11. Anyone (Digipack Bonus Song) (3:38)

Код:

Exact Audio Copy V1.1 from 23. June 2015

EAC extraction logfile from 8. December 2017, 15:30

Amberian Dawn / Darkness Of Eternity

Used drive  : TSSTcorpCDDVDW SH-224DB   Adapter: 1  ID: 0

Read mode               : Secure
Utilize accurate stream : Yes
Defeat audio cache      : Yes
Make use of C2 pointers : No

Read offset correction                      : 6
Overread into Lead-In and Lead-Out          : No
Fill up missing offset samples with silence : Yes
Delete leading and trailing silent blocks   : No
Null samples used in CRC calculations       : Yes
Used interface                              : Native Win32 interface for Win NT & 2000

Used output format              : User Defined Encoder
Selected bitrate                : 1024 kBit/s
Quality                         : High
Add ID3 tag                     : No
Command line compressor         : C:\Program Files (x86)\Exact Audio Copy\win64\flac.exe
Additional command line options : -8 -V -T "ARTIST=%artist%" -T "TITLE=%title%" -T "ALBUM=%albumtitle%" -T "DATE=%year%" -T "TRACKNUMBER=%tracknr%" -T "GENRE=%genre%" -T "COMMENT=%comment%" %source% -o %dest%

TOC of the extracted CD

     Track |   Start  |  Length  | Start sector | End sector
    ---------------------------------------------------------
        1  |  0:00.00 |  4:06.23 |         0    |    18472
        2  |  4:06.23 |  4:04.61 |     18473    |    36833
        3  |  8:11.09 |  5:43.55 |     36834    |    62613
        4  | 13:54.64 |  3:36.44 |     62614    |    78857
        5  | 17:31.33 |  3:54.00 |     78858    |    96407
        6  | 21:25.33 |  4:58.08 |     96408    |   118765
        7  | 26:23.41 |  3:28.18 |    118766    |   134383
        8  | 29:51.59 |  4:04.21 |    134384    |   152704
        9  | 33:56.05 |  4:51.59 |    152705    |   174588
       10  | 38:47.64 |  4:18.34 |    174589    |   193972
       11  | 43:06.23 |  3:38.09 |    193973    |   210331

Range status and errors

Selected range

     Filename F:\Sket4er\Amberian Dawn – Darkness Of Eternity  2017\Amberian Dawn - Darkness Of Eternity.wav

     Peak level 99.4 %
     Extraction speed 3.0 X
     Range quality 99.9 %
     Test CRC FECAF500
     Copy CRC FECAF500
     Copy OK

No errors occurred

AccurateRip summary

Track  1  not present in database
Track  2  not present in database
Track  3  not present in database
Track  4  not present in database
Track  5  not present in database
Track  6  not present in database
Track  7  not present in database
Track  8  not present in database
Track  9  not present in database
Track 10  not present in database
Track 11  not present in database

None of the tracks are present in the AccurateRip database

End of status report

Код:

REM GENRE "Symphonic Metal"
REM DATE 2017
REM DISCID A70AF40B
REM COMMENT "ExactAudioCopy v1.1"
PERFORMER "Amberian Dawn"
TITLE "Darkness Of Eternity"
FILE "Amberian Dawn - Darkness Of Eternity.flac" WAVE
  TRACK 01 AUDIO
    TITLE "I'm The One"
    PERFORMER "Amberian Dawn"
    INDEX 01 00:00:00
  TRACK 02 AUDIO
    TITLE "Sky Is Falling"
    PERFORMER "Amberian Dawn"
    INDEX 01 04:06:23
  TRACK 03 AUDIO
    TITLE "Dragonflies"
    PERFORMER "Amberian Dawn"
    INDEX 01 08:11:09
  TRACK 04 AUDIO
    TITLE "Maybe"
    PERFORMER "Amberian Dawn"
    INDEX 01 13:54:64
  TRACK 05 AUDIO
    TITLE "Golden Coins"
    PERFORMER "Amberian Dawn"
    INDEX 01 17:31:33
  TRACK 06 AUDIO
    TITLE "Luna My Darling"
    PERFORMER "Amberian Dawn"
    INDEX 01 21:25:33
  TRACK 07 AUDIO
    TITLE "Abyss"
    PERFORMER "Amberian Dawn"
    INDEX 01 26:23:41
  TRACK 08 AUDIO
    TITLE "Ghostwoman"
    PERFORMER "Amberian Dawn"
    INDEX 01 29:51:59
  TRACK 09 AUDIO
    TITLE "Breathe Again"
    PERFORMER "Amberian Dawn"
    INDEX 01 33:56:05
  TRACK 10 AUDIO
    TITLE "Symphony Nr. 1, Part 2 - Darkness Of Eternity"
    PERFORMER "Amberian Dawn"
    INDEX 01 38:47:64
  TRACK 11 AUDIO
    TITLE "Anyone (Digipack Bonus Song)"
    PERFORMER "Amberian Dawn"
    INDEX 01 43:06:23





pb.wtf



Скачать Amberian Dawn - Darkness Of Eternity - 2017 через торрент http://i102.fastpic.ru/big/2018/0227/6d/90ea900af0c5e3f15fa46b1120472f6d.png Скачать фильм Amberian Dawn - Darkness Of Eternity - 2017через торрент бесплантно в хорошем качестве Трэклист I'm The One (4:06) Sky Is Falling (4:05) Dragonflies (5:44) Maybe (3:37) Golden Coins (3:54) ... 5 10 1
Торрент: Зарегистрирован [2018-03-01 08:20] · скачан: 8 раз
Статус: √ проверено
Размер: 346 MB
Как cкачать? Как скачать Amberian Dawn - Darkness Of Eternity - 2017 через торрент | qTorrent

28-11-2019 20:33  

Отключить всю рекламу на сайте

    Дорогой пользователь! Огромная просьба, поблагодарите релизера, оцените раздачу и оставьте свои комментарий, если Вы скачали Amberian Dawn - Darkness Of Eternity - 2017 через торрент бесплатно! Внесите свою лепту в развитие PiratBit!
    Комментировать посты могут только пользователи прошедшие не сложную регистрацию
    Показать сообщения:    

    Amberian Dawn - Darkness Of Eternity - 2017 через торрент
    Скачать бесплатно Amberian Dawn - Darkness Of Eternity - 2017
    Amberian Dawn - Darkness Of Eternity - 2017 скачать торрент
    Amberian Dawn - Darkness Of Eternity - 2017 смотреть онлайн
    Cкачать фильм Amberian Dawn - Darkness Of Eternity - 2017 бесплатно
    Amberian Dawn - Darkness Of Eternity - 2017 скачать торрент в хорошем качестве
    Amberian Dawn - Darkness Of Eternity - 2017 смотреть онлайн бесплатно в хорошем качестве


    Вы не можете начинать темы
    Вы не можете отвечать на сообщения
    Вы не можете редактировать свои сообщения
    Вы не можете удалять свои сообщения
    Вы не можете голосовать в опросах
    Вы не можете прикреплять файлы к сообщениям
    Вы можете скачивать файлы