Всегда рабочее зеркало без VPN и Proxy просто перед .vidak.icu напиши любое слово или цифру, Пример http://w2ik.vidak.icu

iTunes

2 сезон

1 сезон

1

1 сезон

iTunes

2 сезон

13

1 сезон

Deluxe

pack

Рекомендуем

Пиратка

30

ВАЖНО

RePack

MK11

RePack

jed

RePack

fifa19

RePack

RDR2

RePack

NEED FOR SPEED™ PAYBACK

Кинопоиск HD

6 сезон

 Острые козырьки 6 сезон

Все сериалы

все сериалы на PB.wtf

RePack

FAR CRY 5

Anonymous, нам критически не хватает 5601 руб. на оплату серверов и переферии за Апрель, помоги нам пожалуйста, вся надежда только на тебя. В благодарность мы отключим тебе всю рекламу на сайте!

×
  
Magnet ссылка

Хэллоуин 5 / Halloween 5: The Revenge of Michael Myers (Доминик Отенен-Жирар) [1989 г., Ужасы, Триллер, BDRip-AVC, MVO, AVO] pb.wtf

Хэллоуин 5 через торрент pb.wtf

Размер: 2.89 GB | Добавлен: 9 мес. назад | Торрент скачан:2 раза
Смотреть онлайн Хэллоуин 5 | Скачать    Ребята, помогите собрать деньги на оплату серверов!!!

01-03-2018 09:55 Хэллоуин 5 Скачать торрент  

Хэллоуин 5 /
Halloween 5: The Revenge of Michael Myers
Год выпуска: 1989
Страна: США
Жанр: Ужасы, Триллер
Продолжительность: 01:37:04
Перевод: Профессиональный (многоголосый закадровый) СВ-Дубль, Одноголосый закадровый, 3 вида (Вартан Дохалов, Андрей Дольский, диктор D.F.V.)
Субтитры: отсутствуют

Режиссер: Доминик Отенен-Жирар

Премьера в мире: 13 октября 1989

rating

В ролях: Дональд Плезенс, Даниэль Харрис, Элли Корнелл, Бо Старр, Джеффри Лэндмэн, Тамара Глинн, Джонатан Чейпин, Мэттью Уолкер, Венди Каплан, Бетти Карвальо

Описание: Прошёл год. А это означает, что вновь близится Хэллоуин и снова людям предстоит одевать страшные маски. Джейми, как мы помним, определили в хэддонфилдскую психушку, где она имела астральную связь с маньяком и видела все его действия, а также могла предсказать опасность для людей, находящихся рядом с ним. На дворе Хэллоуин, и Джейми стала проявлять признаки беспокойства, то и дело попадая в состояние трясучки. Девочка права - Майкл вернулся вновь. Вернулся, чтобы снова устроить кровавую резню...

Качество: BDRip-AVC
Формат: MKV
Видео кодек: H.264
Аудио кодек: AC3
Видео: AVC/H.264, 1024х554, ~3500 kbps
Аудио#1: Русский: AC3, 48 kHz, 2 ch, 192 kbps - Многоголосый закадровый (СВ-Дубль)
Аудио#2: Русский: AC3, 48 kHz, 2 ch, 192 kbps - Авторский (одноголосый закадровый) (Вартан Дохалов)
Аудио#3: Русский: AC3, 48 kHz, 2 ch, 192 kbps - Авторский (одноголосый закадровый)(Андрей Дольский)
Аудио#4: Русский: AC3, 48 kHz, 2 ch, 192 kbps - Одноголосый закадровый (диктор D.F.V.)
Релиз от: winchester00100010
x264 [info]: profile Progressive High, level 4.1, 4:2:0, 8-bit
x264 [info]: frame I:961 Avg QP:15.06 size: 76614 PSNR Mean Y:48.18 U:51.11 V:52.03 Avg:49.03 Global:48.37
x264 [info]: frame P:30416 Avg QP:17.18 size: 34524 PSNR Mean Y:45.91 U:49.83 V:50.81 Avg:46.92 Global:46.16
x264 [info]: frame B:108255 Avg QP:18.99 size: 13140 PSNR Mean Y:44.69 U:49.21 V:50.34 Avg:45.79 Global:45.05

Общее
Уникальный идентификатор : 209610638620537580868173778048644020688 (0x9DB18A6204B7989483E5B94EF5BFF9D0)
Полное имя : D:\Мои раздачи и рипы\Хэллоуин Коллекция\Halloween.5.The.Revenge.Of.Michael.Myers.1989.BDRip-AVC.mkv
Формат : Matroska
Версия формата : Version 2
Размер файла : 2,89 Гбайт
Продолжительность : 1 ч. 37 м.
Общий поток : 4 268 Кбит/сек
Дата кодирования : UTC 2021-08-09 16:29:02
Программа кодирования : mkvmerge v5.8.0 ('No Sleep / Pillow') built on Sep 2 2012 15:37:04
Библиотека кодирования : libebml v1.2.3 + libmatroska v1.3.0

Видео
Идентификатор : 1
Формат : AVC
Формат/Информация : Advanced Video Codec
Профиль формата : High@L4.1
Настройки формата : CABAC / 12 Ref Frames
Параметр CABAC формата : Да
Параметр RefFrames формата : 12 кадров
Идентификатор кодека : V_MPEG4/ISO/AVC
Продолжительность : 1 ч. 37 м.
Битрейт : 3 500 Кбит/сек
Ширина : 1 024 пикселя
Высота : 554 пикселя
Соотношение сторон : 1,85:1
Режим частоты кадров : Постоянный
Частота кадров : 23,976 (24000/1001) кадра/сек
Цветовое пространство : YUV
Субдискретизация насыщенности : 4:2:0
Битовая глубина : 8 бит
Тип развёртки : Прогрессивная
Бит/(Пиксели*Кадры) : 0.257
Размер потока : 2,32 Гбайт (80%)
Библиотека кодирования : x264 core 157 r2969 d4099dd
Настройки программы : cabac=1 / ref=12 / deblock=1:-3:-3 / analyse=0x3:0x133 / me=umh / subme=9 / psy=1 / psy_rd=1.00:0.15 / mixed_ref=1 / me_range=32 / chroma_me=1 / trellis=2 / 8x8dct=1 / cqm=0 / deadzone=21,11 / fast_pskip=0 / chroma_qp_offset=-3 / threads=12 / lookahead_threads=2 / sliced_threads=0 / nr=0 / decimate=0 / interlaced=0 / bluray_compat=0 / constrained_intra=0 / bframes=6 / b_pyramid=2 / b_adapt=2 / b_bias=0 / direct=3 / weightb=1 / open_gop=0 / weightp=2 / keyint=240 / keyint_min=23 / scenecut=40 / intra_refresh=0 / rc_lookahead=40 / rc=2pass / mbtree=0 / bitrate=3500 / ratetol=1.0 / qcomp=0.60 / qpmin=0 / qpmax=69 / qpstep=4 / cplxblur=20.0 / qblur=0.5 / vbv_maxrate=50000 / vbv_bufsize=62500 / nal_hrd=none / filler=0 / ip_ratio=1.40 / pb_ratio=1.30 / aq=1:0.80
Язык : English
Default : Да
Forced : Нет
Duration_Source : General_Duration

Аудио #1
Идентификатор : 2
Формат : AC-3
Формат/Информация : Audio Coding 3
Коммерческое название : Dolby Digital
Идентификатор кодека : A_AC3
Продолжительность : 1 ч. 37 м.
Вид битрейта : Постоянный
Битрейт : 192 Кбит/сек
Каналы : 2 канала
Channel layout : L R
Частота : 48,0 КГц
Частота кадров : 31,250 кадров/сек (1536 SPF)
Метод сжатия : С потерями
Размер потока : 133 Мбайт (4%)
Заголовок : Многоголосый закадровый (СВ-Дубль)
Язык : Russian
Service kind : Complete Main
Default : Да
Forced : Нет
Duration_Source : General_Duration

Аудио #2
Идентификатор : 3
Формат : AC-3
Формат/Информация : Audio Coding 3
Коммерческое название : Dolby Digital
Идентификатор кодека : A_AC3
Продолжительность : 1 ч. 37 м.
Вид битрейта : Постоянный
Битрейт : 192 Кбит/сек
Каналы : 2 канала
Channel layout : L R
Частота : 48,0 КГц
Частота кадров : 31,250 кадров/сек (1536 SPF)
Метод сжатия : С потерями
Размер потока : 133 Мбайт (4%)
Заголовок : Авторский одноголосый (Вартан Дохалов)
Язык : Russian
Service kind : Complete Main
Default : Нет
Forced : Нет
Duration_Source : General_Duration

Аудио #3
Идентификатор : 4
Формат : AC-3
Формат/Информация : Audio Coding 3
Коммерческое название : Dolby Digital
Идентификатор кодека : A_AC3
Продолжительность : 1 ч. 37 м.
Вид битрейта : Постоянный
Битрейт : 192 Кбит/сек
Каналы : 2 канала
Channel layout : L R
Частота : 48,0 КГц
Частота кадров : 31,250 кадров/сек (1536 SPF)
Метод сжатия : С потерями
Размер потока : 133 Мбайт (4%)
Заголовок : Авторский одноголосый (Андрей Дольский)
Язык : Russian
Service kind : Complete Main
Default : Нет
Forced : Нет
Duration_Source : General_Duration

Аудио #4
Идентификатор : 5
Формат : AC-3
Формат/Информация : Audio Coding 3
Коммерческое название : Dolby Digital
Идентификатор кодека : A_AC3
Продолжительность : 1 ч. 37 м.
Вид битрейта : Постоянный
Битрейт : 192 Кбит/сек
Каналы : 2 канала
Channel layout : L R
Частота : 48,0 КГц
Частота кадров : 31,250 кадров/сек (1536 SPF)
Метод сжатия : С потерями
Размер потока : 133 Мбайт (4%)
Заголовок : Одноголосый закадровый (диктор D.F.V.)
Язык : Russian
Service kind : Complete Main
Default : Нет
Forced : Нет
Duration_Source : General_Duration

pb.wtf



Скачать Хэллоуин 5 через торрент https://d.radikal.ru/d19/1803/0a/c245ef55cd00.jpg Скачать, смотреть онлайн Хэллоуин 5 бесплантно в хорошем качестве Описание: Прошёл год. А это означает, что вновь близится Хэллоуин и снова людям предстоит одевать страшные маски. Джейми, как мы помним, ... 10 10 2
Торрент: Зарегистрирован [2021-08-09 18:18] · скачан: 2 раз
Статус: √ проверено
Размер: 2.89 GB
Как cкачать? Как скачать Хэллоуин 5 через торрент | UTorrent

% Раздел Тема Автор DL S | L
Фильмы с авторской озвучкой [ 4.55 GB ] Хэллоуин 5 / Halloween 5: The Revenge of Michael Myers [1989 BDRip 720p MVO 2х AVO VO] winchester00100010 Скачать
2 | 0
Фильмы с авторской озвучкой [ 7.75 GB ] Хэллоуин 5 / Halloween 5: The Revenge of Michael Myers [1989 BDRip 1080p Авторский ] winchester00100010 Скачать
1 | 0

28-11-2019 20:33  

Отключить всю рекламу на сайте

09-08-2021 18:24 Хэллоуин 5 Скачать торрент  

Топик был перенесен из форума Фильмы с авторской озвучкой в форум Фильмы до 2000 г.


bober100pb.wtf



    Дорогой пользователь! Огромная просьба, поблагодарите релизера, оцените раздачу и оставьте свои комментарий, если Вы скачали Хэллоуин 5 через торрент бесплатно!
    Комментировать посты могут только пользователи прошедшие не сложную регистрацию
    Показать сообщения:    

    Хэллоуин 5 через торрент
    Скачать бесплатно Хэллоуин 5
    Хэллоуин 5 скачать торрент
    Хэллоуин 5 смотреть онлайн
    Cкачать фильм Хэллоуин 5 бесплатно
    Хэллоуин 5 скачать торрент в хорошем качестве
    Хэллоуин 5 смотреть онлайн бесплатно в хорошем качестве


    Вы не можете начинать темы
    Вы не можете отвечать на сообщения
    Вы не можете редактировать свои сообщения
    Вы не можете удалять свои сообщения
    Вы не можете голосовать в опросах
    Вы не можете прикреплять файлы к сообщениям
    Вы можете скачивать файлы