2 сезон

iTunes

MVO

1

2 сезон

iTunes

iTunes

1 сезон

RePack

30

Новинка

ВАЖНО

ИГРА 18+

pack

RePack

MK11
pack

Легкие деньги

RePack

jed

RePack

fifa19

RePack

RDR2

RePack

NEED FOR SPEED™ PAYBACK

4 сезон

9 сезон

Бесстыжие 9 сезон

Все сериалы

все сериалы на PB.wtf

RePack

FAR CRY 5

Anonymous, доброе утро, мы не успеваем собрать деньги на оплату серверов за декабрь и январь, помогите нам пожалуйста в это трудное время. В качестве благодарности мы отключим Вам всю рекламу на сайте (укажите свой ник в строку Ваше имя)!

×
  
Magnet ссылка

Тор: Рагнарёк / Thor: Ragnarok (Тайка Вайтити) [2017, фантастика, боевик, комедия, приключения, BDRip-AVC] DUB [Лицензия] pb.wtf

Тор: Рагнарёк через торрент pb.wtf

Размер: 1.46 GB | Добавлен: 2 года 10 мес. назад | Торрент скачан:555 раз
Скачать  

01-03-2018 14:22 Тор: Рагнарёк Скачать торрент  

Тор: Рагнарёк / Thor: RagnarokГод выпуска: 2017
Страна: США
Жанр: фантастика, боевик, комедия, приключения
Продолжительность: 02:10:30
Перевод: Дублированный | Лицензия
Субтитры: русские, английские

Режиссер: Тайка Вайтити

rating

В ролях:


Крис Хемсворт (Thor), Том Хиддлстон (Loki), Кейт Бланшетт (Hela), Идрис Эльба (Heimdall), Джефф Голдблюм (Grandmaster), Тесса Томпсон (Valkyrie), Карл Урбан (Skurge), Марк Руффало (Bruce Banner / Hulk), Энтони Хопкинс (Odin), Бенедикт Камбербэтч (Doctor Strange), Тайка Вайтити (Korg, озвучка), Рэйчел Хаус (Topaz)

Описание:

Вернувшись в Асгард в поисках таинственного врага, ведущего охоту на Камни Бесконечности, Тор обнаруживает, что действия его брата Локи, захватившего трон Асгарда, привели к приближению наиболее страшного события - Рагнарёка. По легенде, это ознаменует последнюю битву Асгарда, последствием которой станет его полное уничтожение. В попытке предотвратить это событие, Тору предстоит прибегнуть к помощи своего товарища из Мстителей - Халка. Вместе, им предстоит столкнуться лицом к лицу со злейшим врагом всех девяти миров - огненным демоном Суртуром, целью которого является исполнение пророчества о Рагнарёке и уничтожение девяти миров.

Качество: BDRip-AVC
Формат: MKV
Видео кодек: H.264
Аудио кодек: AC3

Видео: 720x300 (2.40:1), 23,976 fps, x264 ~ 1407 kbps avg, 0.272 bit/pixel
Аудио: 48 kHz, AC3 Dolby Digital, 2.0 Front: L R, ~192.00 kbps avg | RUS (Лицензия)
скриншот  скриншот  скриншот  скриншот  скриншот  

x264 [info]: profile High, level 4.1
x264 [info]: frame I:3200 Avg QP:15.14 size: 39797
x264 [info]: frame P:77308 Avg QP:18.37 size: 12054
x264 [info]: frame B:107240 Avg QP:19.40 size: 2965

Общее
Уникальный идентификатор : 263857365603096284623794797256723446255 (0xC681148476555BF500FD64164950B9EF)
Полное имя : D:ВидеоThor.Ragnarok.2017.BDRip(AVC).OlLanDGroup (1).mkv
Формат : Matroska
Версия формата : Version 4 / Version 2
Размер файла : 1,46 Гбайт
Продолжительность : 2 ч. 10 м.
Общий поток : 1602 Кбит/сек
Название фильма : Thor: Ragnarok 2017 BDRip(AVC).OlLanDGroup
Дата кодирования : UTC 2018-03-01 13:55:32
Программа кодирования : mkvmerge v21.0.0 ('Tardigrades Will Inherit The Earth') 64-bit
Библиотека кодирования : libebml v1.3.5 + libmatroska v1.4.8
DURATION : 02:10:30.688000000
NUMBER_OF_FRAMES : 244709
NUMBER_OF_BYTES : 187936512
_STATISTICS_WRITING_APP : mkvmerge v21.0.0 ('Tardigrades Will Inherit The Earth') 64-bit
_STATISTICS_WRITING_DATE_UTC : 2018-03-01 13:55:32
_STATISTICS_TAGS : BPS DURATION NUMBER_OF_FRAMES NUMBER_OF_BYTES
Attachment : Yes

Видео
Идентификатор : 1
Формат : AVC
Формат/Информация : Advanced Video Codec
Профиль формата : High@L4.1
Параметр CABAC формата : Да
Параметр ReFrames формата : 10 кадров
Идентификатор кодека : V_MPEG4/ISO/AVC
Продолжительность : 2 ч. 10 м.
Битрейт : 1407 Кбит/сек
Ширина : 720 пикселей
Высота : 300 пикселей
Соотношение сторон : 2,40:1
Режим частоты кадров : Постоянный
Частота кадров : 23,976 кадра/сек
Цветовое пространство : YUV
Субдискретизация насыщенности : 4:2:0
Битовая глубина : 8 бит
Тип развёртки : Прогрессивная
Бит/(Пиксели*Кадры) : 0.272
Размер потока : 1,26 Гбайт (86%)
Заголовок : Thor.Ragnarok.2017.BDRip(AVC).OlLanDGroup
Библиотека кодирования : x264 core 146 r2538 121396c
Настройки программы : cabac=1 / ref=10 / deblock=1:-3:-3 / analyse=0x3:0x133 / me=umh / subme=11 / psy=1 / psy_rd=1.00:0.00 / mixed_ref=1 / me_range=32 / chroma_me=1 / trellis=2 / 8x8dct=1 / cqm=0 / deadzone=21,11 / fast_pskip=0 / chroma_qp_offset=-2 / threads=6 / lookahead_threads=1 / sliced_threads=0 / nr=0 / decimate=0 / interlaced=0 / bluray_compat=0 / constrained_intra=0 / bframes=10 / b_pyramid=2 / b_adapt=1 / b_bias=0 / direct=3 / weightb=1 / open_gop=0 / weightp=2 / keyint=240 / keyint_min=23 / scenecut=40 / intra_refresh=0 / rc_lookahead=40 / rc=2pass / mbtree=0 / bitrate=1407 / ratetol=1.0 / qcomp=0.60 / qpmin=0 / qpmax=69 / qpstep=4 / cplxblur=20.0 / qblur=0.5 / vbv_maxrate=50000 / vbv_bufsize=62500 / nal_hrd=none / filler=0 / ip_ratio=1.40 / pb_ratio=1.30 / aq=1:1.00
Default : Да
Forced : Нет

Аудио
Идентификатор : 2
Формат : AC-3
Формат/Информация : Audio Coding 3
Расширение режима : CM (complete main)
Параметр Endianness формата : Big
Идентификатор кодека : A_AC3
Продолжительность : 2 ч. 10 м.
Вид битрейта : Постоянный
Битрейт : 192 Кбит/сек
Каналы : 2 канала
Расположение каналов : Front: L R
Частота : 48,0 КГц
Битовая глубина : 16 бит
Метод сжатия : С потерями
Размер потока : 179 Мбайт (12%)
Язык : Russian
Default : Да
Forced : Нет

Текст #1
Идентификатор : 3
Формат : UTF-8
Идентификатор кодека : S_TEXT/UTF8
Идентификатор кодека/Информация : UTF-8 Plain Text
Заголовок : Forced
Язык : Russian
Default : Да
Forced : Нет

Текст #2
Идентификатор : 4
Формат : UTF-8
Идентификатор кодека : S_TEXT/UTF8
Идентификатор кодека/Информация : UTF-8 Plain Text
Заголовок : Full
Язык : Russian
Default : Нет
Forced : Нет

Текст #3
Идентификатор : 5
Формат : UTF-8
Идентификатор кодека : S_TEXT/UTF8
Идентификатор кодека/Информация : UTF-8 Plain Text
Заголовок : SDH
Язык : Russian
Default : Нет
Forced : Нет

Текст #4
Идентификатор : 6
Формат : UTF-8
Идентификатор кодека : S_TEXT/UTF8
Идентификатор кодека/Информация : UTF-8 Plain Text
Заголовок : Full
Язык : English
Default : Нет
Forced : Нет

Текст #5
Идентификатор : 7
Формат : UTF-8
Идентификатор кодека : S_TEXT/UTF8
Идентификатор кодека/Информация : UTF-8 Plain Text
Заголовок : SDH
Язык : English
Default : Нет
Forced : Нет

Меню
00:00:00.000 : en:The Great Prophecy
00:06:20.672 : en:The Tragedy Of Loki Of Asgard
00:14:11.642 : en:A Worthy Inclusion
00:22:12.873 : en:The Goddess Of Death
00:26:43.060 : en:"Are You A Fighter, Or Are You Food?"
00:31:29.721 : en:Heiress Apparent
00:35:03.935 : en:The Grandmaster
00:42:49.734 : en:The Eternal Flame
00:48:31.534 : en:The Contest Of Champions
00:59:38.784 : en:The Resistance
01:07:57.907 : en:Hotheaded Fools
01:17:30.604 : en:The Revengers
01:27:25.323 : en:"The Revolution Has Begun"
01:36:08.721 : en:Ready For War
01:42:35.733 : en:"Asgard Is Not A Place"
01:49:19.887 : en:"What Were You The God Of Again?"
01:54:57.599 : en:Ragnarok
02:00:37.522 : en:End Credits

pb.wtf



Скачать Тор: Рагнарёк через торрент https://a.radikal.ru/a33/1802/96/41335bbf1be6.png Скачать фильм Тор: Рагнарёк через торрент бесплантно в хорошем качестве Описание: Вернувшись в Асгард в поисках таинственного врага, ведущего охоту на Камни Бесконечности, Тор обнаруживает, что действия его ... 9.1 10 10
Торрент: Зарегистрирован [2018-03-01 14:22] · скачан: 555 раз
Статус: √ проверено
Размер: 1.46 GB
Как cкачать? Как скачать Тор: Рагнарёк через торрент | UTorrent

% Раздел Тема Автор DL S | L
Фильмы (HD 720p, 1080p) (48-60 fps) [ 5.45 GB ] Тор: Рагнарёк / Thor: Ragnarok [2017 Hybrid 720p / 60 FPS ] от R.G. HD-Films slaventi-69 Скачать
5 | 0
Ultra HD (UHD: 2K, 4K, 8K) — видео сверхвысокой чёткости [ 36.4 GB ] Тор: Рагнарёк / Thor: Ragnarok [2017 UHD BDRip 2160p] [SDR] DUB + 2xVO sheker187 Скачать
1 | 0
Ultra HD (UHD: 2K, 4K, 8K) — видео сверхвысокой чёткости [ 16.74 GB ] Тор: Рагнарёк / Thor: Ragnarok [2017 UHD BDRip 2160p] DUB + 2xVO sheker187 Скачать
1 | 0
Ultra HD (UHD: 2K, 4K, 8K) — видео сверхвысокой чёткости [ 65.29 GB ] Тор: Рагнарёк / Thor: Ragnarok [2017 UHD Blu-Ray 2160p] DUB [Custom] sheker187 Скачать
1 | 0
Фильмы [HD 720p, 1080p] (Хороший звук DUB, MVO) [ 7.31 GB ] Тор: Рагнарёк / Thor: Ragnarok [2017 BDRip 1080p HEVC ()] Мичман37 Скачать
1 | 0
Фильмы (Blu-ray, BD-Remux, HDDVD) [ 39.06 GB ] Тор: Рагнарёк / Thor: Ragnarok [2017 Blu-Ray EUR 1080p] - [] sheker187 Скачать
1 | 0
Фильмы с авторской озвучкой [ 2.07 GB ] Тор: Рагнарёк / Thor: Ragnarok [2017 BDRip] [AVO] killermax2013 Скачать
1 | 0

28-11-2019 20:33  

Отключить всю рекламу на сайте

    Дорогой пользователь! Огромная просьба, поблагодарите релизера, оцените раздачу и оставьте свои комментарий, если Вы скачали Тор: Рагнарёк через торрент бесплатно! Внесите свою лепту в развитие PiratBit!
    Комментировать посты могут только пользователи прошедшие не сложную регистрацию
    Показать сообщения:    

    Тор: Рагнарёк через торрент
    Скачать бесплатно Тор: Рагнарёк
    Тор: Рагнарёк скачать торрент
    Тор: Рагнарёк смотреть онлайн
    Cкачать фильм Тор: Рагнарёк бесплатно
    Тор: Рагнарёк скачать торрент в хорошем качестве
    Тор: Рагнарёк смотреть онлайн бесплатно в хорошем качестве


    Вы не можете начинать темы
    Вы не можете отвечать на сообщения
    Вы не можете редактировать свои сообщения
    Вы не можете удалять свои сообщения
    Вы не можете голосовать в опросах
    Вы не можете прикреплять файлы к сообщениям
    Вы можете скачивать файлы