1 сезон

1 сезон

iTunes

1

КиноПоиск HD

Кинопоиск HD

iTunes

13

1 сезон

RePack

30

Ultimate

ВАЖНО

ИГРА 18+

pack

RePack

MK11
pack

Легкие деньги

RePack

jed

RePack

fifa19

RePack

RDR2

RePack

NEED FOR SPEED™ PAYBACK

4 сезон

9 сезон

Бесстыжие 9 сезон

Все сериалы

все сериалы на PB.wtf

RePack

FAR CRY 5
  
Magnet ссылка

Хэллоуин: Воскрешение / Halloween: Resurrection (Рик Розенталь) [2002 г., Ужасы, Триллер, Комедия, BDRip-AVC, Дубляж] pb.wtf

Хэллоуин: Воскрешение через торрент pb.wtf

Размер: 2.28 GB | Добавлен: 3 года 1 мес. назад | Торрент скачан:10 раз
Скачать  

01-03-2018 18:01 Хэллоуин: Воскрешение Скачать торрент  

Хэллоуин: Воскрешение /
Halloween: Resurrection
Год выпуска: 2002
Страна: США
Жанр: Ужасы, Триллер, Комедия
Продолжительность: 01:29:32
Перевод: Профессиональный (полное дублирование) Лицензия
Субтитры: отсутствуют

Режиссер: Рик Розенталь

Премьера в мире: 1 июля 2002

rating

В ролях: Баста Раймс, Бьянка Кэйлик, Томас Иэн Николас, Райан Мерриман, Шон Патрик Томас, Тайра Бэнкс, Джейми Ли Кёртис, Брэд Лори, Дэйзи МакКрэкин, Кэти Сакхофф

Описание: Некий шоу-бизнесмен устраивает в доме печально известного убийцы Майкла Майерса, считающегося мертвым, действо, весьма напоминающее шоу «За стеклом». Группа подростков должна провести ночь в доме маньяка с трансляцией всего происходящего в интернет, из оборудования только е-майл.
Чего бояться, если хозяин давно мертв? Но возникает одна проблема — Майерс возвращается в родные стены…

Качество: BDRip-AVC
Формат: MKV
Видео кодек: H.264
Аудио кодек: AC3
Видео: AVC/H.264, 1024х434 (2,35:1), ~3200 kbps, 0.300 bit/pixel
Аудио#1: Русский: AC3, 6 ch, 448 kbps - Профессиональный (полное дублирование) Лицензия
Релиз от: winchester00100010
Общее
Уникальный идентификатор : 251820326798971555774204659185143433253 (0xBD72D4AF3A1CE6FC8931C7C9E6B6C825)
Полное имя : E:\Торрент файлы раздач вместе с фильмами\Halloween.Resurrection.2002.x264.BDRip-AVC.mkv
Формат : Matroska
Версия формата : Version 2
Размер файла : 2,28 Гбайт
Продолжительность : 1 ч. 29 м.
Общий поток : 3650 Кбит/сек
Название фильма : winchester00100010
Дата кодирования : UTC 2018-02-28 15:52:10
Программа кодирования : mkvmerge v5.8.0 ('No Sleep / Pillow') built on Sep 2 2012 15:37:04
Библиотека кодирования : libebml v1.2.3 + libmatroska v1.3.0

Видео
Идентификатор : 1
Формат : AVC
Формат/Информация : Advanced Video Codec
Профиль формата : High@L4.1
Настройки формата : CABAC / 9 Ref Frames
Параметр CABAC формата : Да
Параметр RefFrames формата : 9 кадров
Идентификатор кодека : V_MPEG4/ISO/AVC
Продолжительность : 1 ч. 29 м.
Битрейт : 3200 Кбит/сек
Ширина : 1024 пикселя
Высота : 434 пикселя
Соотношение сторон : 2,35:1
Режим частоты кадров : Постоянный
Частота кадров : 23,976 (24000/1001) кадра/сек
Цветовое пространство : YUV
Субдискретизация насыщенности : 4:2:0
Битовая глубина : 8 бит
Тип развёртки : Прогрессивная
Бит/(Пиксели*Кадры) : 0.300
Размер потока : 1,96 Гбайт (86%)
Заголовок : Halloween.Resurrection.2002.x264.BDRip-AVC.mkv
Библиотека кодирования : x264 core 142 r2409+42 04be48a tMod [8-bit@4:2:0 X86]
Настройки программы : cabac=1 / ref=9 / deblock=1:-3:-3 / analyse=0x3:0x133 / me=umh / subme=11 / psy=1 / fade_compensate=0.00 / psy_rd=1.00:0.25 / mixed_ref=1 / me_range=32 / chroma_me=1 / trellis=2 / 8x8dct=1 / cqm=0 / deadzone=21,11 / fast_pskip=0 / chroma_qp_offset=-4 / threads=3 / lookahead_threads=1 / sliced_threads=0 / nr=0 / decimate=0 / interlaced=0 / bluray_compat=0 / constrained_intra=0 / fgo=0 / bframes=8 / b_pyramid=2 / b_adapt=2 / b_bias=0 / direct=3 / weightb=1 / open_gop=0 / weightp=2 / keyint=240 / keyint_min=23 / scenecut=40 / intra_refresh=0 / rc=2pass / mbtree=0 / bitrate=3200 / ratetol=1.0 / qcomp=0.60 / qpmin=0:0:0 / qpmax=69:69:69 / qpstep=4 / cplxblur=20.0 / qblur=0.5 / ip_ratio=1.40 / pb_ratio=1.30 / aq=1:1.00 / aq-sensitivity=10.00 / aq-factor=1.00:1.00:1.00 / aq2=0 / aq3=0
Язык : English
Default : Да
Forced : Нет

Аудио
Идентификатор : 2
Формат : AC-3
Формат/Информация : Audio Coding 3
Идентификатор кодека : A_AC3
Продолжительность : 1 ч. 29 м.
Вид битрейта : Постоянный
Битрейт : 448 Кбит/сек
Каналы : 6 каналов
Расположение каналов : Front: L C R, Side: L R, LFE
Частота : 48,0 КГц
Частота кадров : 31,250 кадров/сек (1536 SPF)
Битовая глубина : 16 бит
Метод сжатия : С потерями
Размер потока : 287 Мбайт (12%)
Заголовок : Профессиональный (полное дублирование) Лицензия
Язык : Russian
ServiceKind/String : Complete Main
Default : Да
Forced : Да

pb.wtf



Скачать Хэллоуин: Воскрешение через торрент https://pic1.kartinco.top/images/11/dujmu.jpg Скачать фильм Хэллоуин: Воскрешение через торрент бесплантно в хорошем качестве Описание: Некий шоу-бизнесмен устраивает в доме печально известного убийцы Майкла Майерса, считающегося мертвым, действо, весьма ... 7.8 10 4
Торрент: Зарегистрирован [2018-03-01 18:01] · скачан: 10 раз
Статус: √ проверено
Размер: 2.28 GB
Как cкачать? Как скачать Хэллоуин: Воскрешение через торрент | UTorrent

% Раздел Тема Автор DL S | L
Фильмы [HD 720p, 1080p] (Хороший звук DUB, MVO) [ 9.76 GB ] Хэллоуин: Воскрешение / Halloween: Resurrection [2002 BDRip 1080p ] winchester00100010 Скачать
1 | 0
Фильмы [HD 720p, 1080p] (Хороший звук DUB, MVO) [ 4.34 GB ] Хэллоуин: Воскрешение / Halloween: Resurrection [2002 BDRip 720p ] winchester00100010 Скачать
1 | 0

28-11-2019 20:33  

Отключить всю рекламу на сайте

    Дорогой пользователь! Огромная просьба, поблагодарите релизера, оцените раздачу и оставьте свои комментарий, если Вы скачали Хэллоуин: Воскрешение через торрент бесплатно! Внесите свою лепту в развитие PiratBit!
    Комментировать посты могут только пользователи прошедшие не сложную регистрацию
    Показать сообщения:    

    Хэллоуин: Воскрешение через торрент
    Скачать бесплатно Хэллоуин: Воскрешение
    Хэллоуин: Воскрешение скачать торрент
    Хэллоуин: Воскрешение смотреть онлайн
    Cкачать фильм Хэллоуин: Воскрешение бесплатно
    Хэллоуин: Воскрешение скачать торрент в хорошем качестве
    Хэллоуин: Воскрешение смотреть онлайн бесплатно в хорошем качестве


    Вы не можете начинать темы
    Вы не можете отвечать на сообщения
    Вы не можете редактировать свои сообщения
    Вы не можете удалять свои сообщения
    Вы не можете голосовать в опросах
    Вы не можете прикреплять файлы к сообщениям
    Вы можете скачивать файлы