Ссылка на приватное зеркало нашего сайта всего за 1$. Внимание количество ограничено!!!

2 сезон

iTunes

1 сезон

1

2 сезон

2 сезон

iTunes

1 сезон

RePack

30

Ultimate

ВАЖНО

ИГРА 18+

pack

RePack

MK11
pack

Забери бонус

RePack

jed

!!Акция!!

Alien_Rage

RePack

fifa19

RePack

Assassins Creed: Odyssey

RePack

NEED FOR SPEED™ PAYBACK

4 сезон

9 сезон

Бесстыжие 9 сезон

Все сериалы

все сериалы на PB.wtf

RePack

FAR CRY 5
  

Призрачная башня / The Looming Tower / Сезон: 1 / Серия 1-10 из 10 (Крейг Зиск, Майкл Словис, Алекс Гибни) [2018, США, драма, WEBRip] MVO [BaibaKo] pb.wtf

Призрачная башня через торрент pb.wtf

Размер: 5.57 GB | Добавлен: 2 года 7 мес. назад | Торрент скачан:21 раз
Скачать  

02-03-2018 07:50 Призрачная башня Скачать торрент  


Призрачная башня / The Looming Tower



  • Год выпуска: 2018
  • Страна: США
  • Жанр: драма
  • Продолжительность: 00:50:00 (Серия)
  • Перевод: Профессиональный многоголосый [BaibaKo]
  • Режиссер: Крейг Зиск, Майкл Словис, Алекс Гибни
  • В ролях:
    Мэтт Джонс, Келли П. Уильямс, Эрика Чо, Кэти Флэхайв, Дженни Пол, Самер Бишарат, Джеймс Ньюманн, Тауфик Бархом, Кимберли С. Фербенкс, Джордан Лейдж



  • В центре событий — агенты ФБР и ЦРУ, которые объединяют усилия в борьбе с растущей террористической угрозой со стороны Усамы бен Ладена и «Аль-Каиды». Однако вскоре ведомства начинают соперничать друг с другом, что в итоге приводит к трагедии 11 сентября и войне в Ираке.
  • Рейтинг:

    rating
  • Качество: WEBRip
  • Формат: AVI
  • Видео кодек: XviD
  • Аудио кодек: MP3
  • Видео: 1490 Кбит/сек, 720*400 (16:9), в 23,976 (24000/1001) кадра/сек, MPEG-4 Visual (XviD)
  • Аудио №1: русский 192 Кбит/сек, 48,0 КГц, 2 канала, MPEG Audio (MP3) |[BaibaKo]|
  • Релиз от: GEKADOL

    Внимание! Раздача ведётся путём добавления новых серий; при каждом добавлении создаётся новый торрент. Чтобы начать докачку новой серии, пользователям необходимо сделать следующее:
    (1) остановить скачивание,
    (2) удалить старый торрент у себя из клиента (старые серии удалять не надо),
    (3) скачать новый торрент и запустить его у себя в клиенте вместо старого, при этом указать клиенту путь в старую папку куда и должно происходить скачивание новых серий.
    Ваш клиент при этом должен произвести хеширование (проверку) старой папки (если не производит сам - помогите ему сделать это), и будет докачивать только те серии которых у вас ещё нет. Старые серии при этом не удаляются, а продолжают раздаваться!
    Eсли вы уже удалили старые серии, то предотвратить повторную закачку старых серий можно, отжав галочку в соответствующих местах при запуске нового торрента. По возможности, желательно не удалять старые серии как можно дольше чтобы релизёр не столько продолжал раздавать старые серии, а смог сконцентрироваться на новых.
    Общее
    Полное имя : F:\Загрузки\Призрачная башня (The Looming Tower)\The.Looming.Tower.s01e01.WEBRip.XviD.Rus.BaibaKo.avi
    Формат : AVI
    Формат/Информация : Audio Video Interleave
    Размер файла : 580 Мбайт
    Продолжительность : 47 м. 56 с.
    Общий поток : 1692 Кбит/сек

    Видео
    Идентификатор : 0
    Формат : MPEG-4 Visual
    Профиль формата : Advanced Simple@L5
    Настройки формата : BVOP2
    Параметр BVOP формата : 2
    Параметр QPel формата : Нет
    Параметр GMC формата : Без точки перехода
    Параметр матрицы формата : Default (H.263)
    Идентификатор кодека : XVID
    Идентификатор кодека/Подсказка : XviD
    Продолжительность : 47 м. 56 с.
    Битрейт : 1490 Кбит/сек
    Ширина : 720 пикселей
    Высота : 400 пикселей
    Соотношение сторон : 16:9
    Частота кадров : 23,976 (24000/1001) кадра/сек
    Цветовое пространство : YUV
    Субдискретизация насыщенности : 4:2:0
    Битовая глубина : 8 бит
    Тип развёртки : Прогрессивная
    Метод сжатия : С потерями
    Бит/(Пиксели*Кадры) : 0.216
    Размер потока : 511 Мбайт (88%)
    Библиотека кодирования : XviD 67

    Аудио
    Идентификатор : 1
    Формат : MPEG Audio
    Версия формата : Version 1
    Профиль формата : Layer 3
    Настройки формата : Joint stereo / MS Stereo
    Идентификатор кодека : 55
    Идентификатор кодека/Подсказка : MP3
    Продолжительность : 47 м. 56 с.
    Вид битрейта : Постоянный
    Битрейт : 192 Кбит/сек
    Каналы : 2 канала
    Частота : 48,0 КГц
    Метод сжатия : С потерями
    Задержка видео : 17 мс.
    Размер потока : 65,8 Мбайт (11%)
    Выравнивание : Разделение по промежуткам
    Продолжительность промежутка : 42 мс. (1,00 видеокадр)
    Время предзагрузки промежутка : 500 мс.
    Библиотека кодирования : LAME3.100U  —‡ґar



    Скриншоты:
    скриншот   скриншот   скриншот   скриншот   скриншот   скриншот   скриншот  
    скриншот  

    Раздача ведётся путём добавления новых серий. Добавлена 10 серия (24.04.2018).Просьба перекачать торрент файл.

    pb.wtf



  • Скачать Призрачная башня через торрент http://pic1.kartinco.top/images/11/o8fy7.jpg Скачать фильм Призрачная башня через торрент бесплантно в хорошем качестве qw.png В центре событий — агенты ФБР и ЦРУ, которые объединяют усилия в борьбе с растущей террористической угрозой со стороны Усамы бен ... 8.2 10 5
    Info! Золотая раздача, скачанное не засчитывается.
    Торрент: Зарегистрирован [2018-04-24 04:17] · скачан: 21 раз
    Статус: √ проверено
    Размер: 5.57 GB
    Как cкачать? Как скачать Призрачная башня через торрент | qTorrent

    % Раздел Тема Автор DL S | L
    Зарубежные сериалы [ 24.62 GB ] Призрачная башня / The Looming Tower / Сезон: 1 / Серии: 1-10 из 10 [2018 WEBRip 1080p] MVO [TVShows] bober100 Скачать
    1 | 0
    Зарубежные сериалы [ 5.86 GB ] Призрачная башня / The Looming Tower / Сезон: 1 / Серии: 1-10 из 10 [2018 WEB-DLRip] MVO [LostFilm] bober100 Скачать
    2 | 0
    Зарубежные сериалы [ 8.13 GB ] Призрачная башня / The Looming Tower / Сезон: 1 / Серии: 1-10 из 10 [2018 WEBRip 720p] DVO [SunshineStudio] bober100 Скачать
    1 | 0
    Зарубежные сериалы [ 5.84 GB ] Призрачная башня / The Looming Tower / Сезон: 1 / Серии: 1-10 из 10 [2018 WEBRip] DVO [SunshineStudio] bober100 Скачать
    1 | 0
    Зарубежные сериалы [ 24.86 GB ] Призрачная башня / The Looming Tower / Сезон: 1 / Серии: 1-10 из 10 [2018 WEBRip 1080p] MVO [Jaskier] bober100 Скачать
    1 | 0
    Зарубежные сериалы [ 16.92 GB ] Призрачная башня / The Looming Tower / Сезон 1 / Серии 1 - 10 из 10 [2018 WEBRip 1080p] MVO senya120879 Скачать
    1 | 0
    Зарубежные сериалы [ 11 GB ] Призрачная башня / The Looming Tower / Сезон: 1 / Серии: 1-10 из 10 [2018 WEBRip 720p] MVO [Jaskier] bober100 Скачать
    1 | 0


    Последний раз редактировалось: GEKADOL (2018-04-24 04:17), всего редактировалось 12 раз(а)

    28-11-2019 20:33  

    Отключить всю рекламу на сайте

    02-03-2018 08:59 Призрачная башня Скачать торрент  

    фикалы собачьяpb.wtf



    02-03-2018 09:00 Призрачная башня Скачать торрент  

    сами свой народ убили теперь говор это террорpb.wtf



      Дорогой пользователь! Огромная просьба, поблагодарите релизера, оцените раздачу и оставьте свои комментарий, если Вы скачали Призрачная башня через торрент бесплатно! Внесите свою лепту в развитие PiratBit!
      Комментировать посты могут только пользователи прошедшие не сложную регистрацию
      Показать сообщения:    

      Призрачная башня через торрент
      Скачать бесплатно Призрачная башня
      Призрачная башня скачать торрент
      Призрачная башня смотреть онлайн
      Cкачать фильм Призрачная башня бесплатно
      Призрачная башня скачать торрент в хорошем качестве
      Призрачная башня смотреть онлайн бесплатно в хорошем качестве


      Вы не можете начинать темы
      Вы не можете отвечать на сообщения
      Вы не можете редактировать свои сообщения
      Вы не можете удалять свои сообщения
      Вы не можете голосовать в опросах
      Вы не можете прикреплять файлы к сообщениям
      Вы можете скачивать файлы