Ссылка на приватное зеркало всего за 1$. Внимание количество ограничено!!!


iTunes

1+1

iTunes

мы

WEB-DL

1

iTunes

Чернобыль

iTunes

Ральф против интернета

Лицензия

ПШазам

Лицензия

Оно 2

WEB-DL

30
pack

Вам бонус

ВАЖНО

!!Акция!!

Alien_RageХит недели

RePack

Resident Evil 21

ИГРА 18+

pack

RePack

jed

!!Акция!!

Alien_Rage

RePack

fifa19

RePack

Assassins Creed: Odyssey

RePack

NEED FOR SPEED™ PAYBACK

4 сезон

9 сезон

Бесстыжие 9 сезон

Все сериалы

все сериалы на PB.wtf

RePack

FAR CRY 5
Ребята, катастрофически не хватает 1900р. для оплаты серверов за Октябрь (всвязи с блокировками трафик упал в 3 раза), 1-2р., выручайте.
  

Немой / Mute (Дункан Джонс) [2018, фантастика, триллер, детектив, WEBRip-AVC] MVO [HDrezka Studio] pb.wtf

Немой через торрент pb.wtf

Размер: 2.47 GB | Добавлен: 1 год 9 мес. назад | Торрент скачан:296 раз
Скачать  

02-03-2018 08:56 Немой Скачать торрент  

Немой / Mute
Год выпуска: 2018
Страна: Великобритания, Германия
Жанр: фантастика, триллер, детектив

Продолжительность: 02:06:44
Перевод: Профессиональный [многоголосый] [HDrezka Studio]

Режиссер: Дункан Джонс

В ролях:

Levi Eisenblätter (Young Leo), Рози Шоу (Young Sybille), Ойген Баудер (Young Man), Ливия Маттес (Young Woman #1), Jarah Maria Anders (Young Woman #2), Caroline Peters (Leo's Mother), Лаура Де Бур (Doctor), Грегуар Грос (Doctor's Assistant), Александр Скарсгард (Leo), Сейнеб Салех (Naadirah), Роберт Шиэн (Luba), Пол Радд (Cactus Bill)
Описание:
Берлин, 2052 год. Лео Байлер - немой бармен, и у него больше нет причин для существования: его любимая женщина исчезает. Поиски приводят Лео в подземный город, где он знакомится с парой американских хирургов. Лео не может понять, кем являются его новые знакомые - то ли они могут ему помочь, то ли ему стоит бежать от них подальше.
Мировая премьера: 23 февраля 2018
rating
Релиз от:
Качество: WEBRip-AVC
Формат: MKV
Видео: AVC, 1024x512 (2.000), 2039 kbps, 24 fps, 0,162 bpp
Аудио №1: AC3 / 2.0 / 48 kHz / 384 kbps / Русский
Аудио №2: AC3 / 2.0 / 48 kHz / 384 kbps / Английский


General
Unique ID : 175291522563152607705085906575450088824 (0x83DFEB52AAF572227B786B7C6956A578)
Complete name : D:\video\Раздачи\mute.2018.HDrezka-Studio.by WSM.mkv
Format : Matroska
Format version : Version 4 / Version 2
File size : 2.47 GiB
Duration : 2 h 6 min
Overall bit rate : 2 793 kb/s
Movie name : mute.2018
Encoded date : UTC 2018-03-01 05:10:19
Writing application : mkvmerge v21.0.0 ('Tardigrades Will Inherit The Earth') 64-bit
Writing library : libebml v1.3.5 + libmatroska v1.4.8
Cover : Yes
Attachments : cover.jpg / cover_land.jpg / small_cover.jpg / small_cover_land.jpg

Video
ID : 1
Format : AVC
Format/Info : Advanced Video Codec
Format profile : High@L4.1
Format settings, CABAC : Yes
Format settings, ReFrames : 11 frames
Codec ID : V_MPEG4/ISO/AVC
Duration : 2 h 6 min
Bit rate : 2 039 kb/s
Width : 1 024 pixels
Height : 512 pixels
Display aspect ratio : 2.000
Frame rate mode : Constant
Frame rate : 24.000 FPS
Color space : YUV
Chroma subsampling : 4:2:0
Bit depth : 8 bits
Scan type : Progressive
Bits/(Pixel*Frame) : 0.162
Stream size : 1.79 GiB (72%)
Writing library : x264 core 152 r2851 ba24899
Encoding settings : cabac=1 / ref=11 / deblock=1:-3:-3 / analyse=0x3:0x133 / me=umh / subme=11 / psy=1 / psy_rd=1.00:0.10 / mixed_ref=1 / me_range=32 / chroma_me=1 / trellis=2 / 8x8dct=1 / cqm=0 / deadzone=21,11 / fast_pskip=0 / chroma_qp_offset=-3 / threads=6 / lookahead_threads=1 / sliced_threads=0 / nr=0 / decimate=0 / interlaced=0 / bluray_compat=0 / constrained_intra=0 / bframes=10 / b_pyramid=2 / b_adapt=2 / b_bias=0 / direct=3 / weightb=1 / open_gop=0 / weightp=2 / keyint=240 / keyint_min=23 / scenecut=40 / intra_refresh=0 / rc_lookahead=40 / rc=2pass / mbtree=0 / bitrate=2039 / ratetol=1.0 / qcomp=0.60 / qpmin=0 / qpmax=69 / qpstep=4 / cplxblur=20.0 / qblur=0.5 / vbv_maxrate=50000 / vbv_bufsize=62500 / nal_hrd=none / filler=0 / ip_ratio=1.40 / pb_ratio=1.30 / aq=1:1.00
Default : Yes
Forced : No

Audio #1
ID : 2
Format : AC-3
Format/Info : Audio Coding 3
Format profile : Dolby Digital
Mode extension : CM (complete main)
Format settings, Endianness : Big
Codec ID : A_AC3
Duration : 2 h 6 min
Bit rate mode : Constant
Bit rate : 384 kb/s
Channel(s) : 2 channels
Channel positions : Front: L R
Sampling rate : 48.0 kHz
Frame rate : 31.250 FPS (1536 spf)
Compression mode : Lossy
Stream size : 348 MiB (14%)
Language : Russian
Default : No
Forced : Yes

Audio #2
ID : 3
Format : AC-3
Format/Info : Audio Coding 3
Format profile : Dolby Digital
Mode extension : CM (complete main)
Format settings, Endianness : Big
Codec ID : A_AC3
Duration : 2 h 6 min
Bit rate mode : Constant
Bit rate : 384 kb/s
Channel(s) : 2 channels
Channel positions : Front: L R
Sampling rate : 48.0 kHz
Frame rate : 31.250 FPS (1536 spf)
Compression mode : Lossy
Stream size : 348 MiB (14%)
Language : Russian
Default : Yes
Forced : Yes
pb.wtf



Скачать Немой через торрент https://d.radikal.ru/d25/1803/7c/9accfa9df324.jpg Скачать фильм Немой через торрент бесплантно в хорошем качестве Описание: Берлин, 2052 год. Лео Байлер - немой бармен, и у него больше нет причин для существования: его любимая женщина исчезает. Поиски ... 5.2 10 9
Торрент: Зарегистрирован [2018-03-02 08:56] · скачан: 296 раз
Статус: T временная
Размер: 2.47 GB
Как cкачать? Как скачать Немой через торрент | qTorrent

% Раздел Тема Автор DL S | L
Фильмы 2018 [DVDrip, WEB-DLRip, HDrip] (DUB, MVO) [ 1.43 GB ] Немой / Mute [2018 WEBRip-AVC] MVO [NewStudio] sokol_ok Скачать
1 | 0
Фильмы 2018 [DVDrip, WEB-DLRip, HDrip] (DUB, MVO) [ 2.2 GB ] Немой / Mute [2018 WEBRip-AVC] MVO [NewStudio] sokol_ok Скачать
1 | 0
T Фильмы (WEB-DL 720p, 1080p) [ 3.67 GB ] Немой / Mute [2018 WEBRip 1080p] MVO [BaibaKo] bober100 Скачать
1 | 0
T Фильмы (мультфильмы) cо спонсором показа (Новинки AVI/MKV) [ 2.05 GB ] Немой / Mute [2018 WEBRip] [MVO] killermax2013 Скачать
1 | 0
T Фильмы (мультфильмы) cо спонсором показа (Новинки AVI/MKV) [ 16.07 GB ] Немой / Mute [2018 WEBRip 1080p] [MVO] killermax2013 Скачать
1 | 0
T Фильмы 2018 [DVDrip, WEB-DLRip, HDrip] (DUB, MVO) [ 1.46 GB ] Немой / Mute [2018 WEBRip] MVO [BaibaKo] bober100 Скачать
2 | 0
T Фильмы без перевода [ 3.34 GB ] Немой / Mute [2018 WEBRip 1080p] [Sub Rus] killermax2013 Скачать
1 | 0

28-11-2019 20:33  

Отключить всю рекламу на сайте

02-03-2018 13:37 Немой Скачать торрент  

2 часа по траченого времени,мутьpb.wtf



02-03-2018 13:39 Немой Скачать торрент  

Так в название и написано-Mute(муть)pb.wtf



    Дорогой пользователь! Огромная просьба, поблагодарите релизера, оцените раздачу и оставьте свои комментарий, если Вы скачали Немой через торрент бесплатно! Внесите свою лепту в развитие PiratBit!
    Комментировать посты могут только пользователи прошедшие не сложную регистрацию
    Показать сообщения:    

    Немой через торрент
    Скачать бесплатно Немой
    Немой скачать торрент
    Немой смотреть онлайн
    Cкачать фильм Немой бесплатно
    Немой скачать торрент в хорошем качестве
    Немой смотреть онлайн бесплатно в хорошем качестве


    Вы не можете начинать темы
    Вы не можете отвечать на сообщения
    Вы не можете редактировать свои сообщения
    Вы не можете удалять свои сообщения
    Вы не можете голосовать в опросах
    Вы не можете прикреплять файлы к сообщениям
    Вы можете скачивать файлы