новый адрес
Ссылка на приватное зеркало всего за 1$. Внимание количество ограничено!!!

iTunes

1+1

iTunes

мы

WEB-DL

1

iTunes

Чернобыль

iTunes

Ральф против интернета

Лицензия

ПШазам

Лицензия

Оно 2

Лицензия

30
pack

Вам бонус

ВАЖНО

!!Акция!!

Alien_RageХит недели

RePack

Resident Evil 21

ИГРА 18+

pack

RePack

jed

!!Акция!!

Alien_Rage

RePack

fifa19

RePack

Assassins Creed: Odyssey

RePack

NEED FOR SPEED™ PAYBACK

3 сезон

9 сезон

Бесстыжие 9 сезон

Все сериалы

все сериалы на PB.wtf

RePack

FAR CRY 5
Ребята, катастрофически не хватает 1900р. для оплаты серверов за Октябрь (всвязи с блокировками трафик упал в 3 раза), 1-2р., выручайте.
  

Чужие родные / Сезон 1 / Серии 1-8 из 8 (Александр Итыгилов) [2017, Мелодрама, SATRip] pb.wtf

Чужие родные через торрент pb.wtf

Размер: 4.3 GB | Добавлен: 1 год 9 мес. назад | Торрент скачан:62 раза
Скачать  

02-03-2018 08:58 Чужие родные Скачать торрент  

Чужие родныеГод выпуска: 2017
Страна: Украина
Жанр: Мелодрама
Продолжительность: 8 х ~ 00:45:00
Перевод: Не требуется
Субтитры: Украинские

Режиссер: Александр Итыгилов

В ролях:

Анна Кошмал, Федор Гуринец, Станислав Боклан, Александр Гетманский, Наталья Доля, Родион Галюченко, Лариса Руснак, Анастасия Цымбалару, Сергей Радченко, Олеся Гаевая, Алексей Череватенко, Андрей Титов, Анатолий Ященко, Дарья Лобода, Дарья Рыбак, Максим Мотков

Описание:

Главная героиня фильма – молодая балерина Юля. Ее мать – хореограф – готовит свою девочку к отбору на зарубежные гастроли театра. В прошлом мама оставила карьеру именно из-за дочери. Юля ей "должна", она станет маминым триумфом. Провал равносилен смерти. Неудачная попытка самоубийства оборачивается для героини судьбоносной встречей с молодым человеком, который из-за нее опоздал на собственную свадьбу. Эта встреча не только меняет судьбу их обоих, но и приносит неожиданные открытия: о будущем, в котором победы и карьера – не самое главное, и о прошлом, в котором их родители когда-то любили друг друга.

Качество: SATRip
Формат: AVI

Видео: XviD, ~ 1550 Кбит/с, 720х400
Аудио: AC3, 2 ch, 192 Кбит/с
скриншот  скриншот  скриншот  

Общее
Полное имя : E:\торреннты\Chuzyje.rodnyje.2017.SATRip.Files-x\01.Chuzyje.rodnyje.2017.SATRip.Files-x.avi
Формат : AVI
Формат/Информация : Audio Video Interleave
Размер файла : 550 Мбайт
Продолжительность : 44 м. 17 с.
Общий поток : 1737 Кбит/сек
Программа кодирования : VirtualDubMod 1.5.10.3 | www.virtualdub-fr.org || (build 2550/release)
Библиотека кодирования : VirtualDubMod build 2550/release

Видео
Идентификатор : 0
Формат : MPEG-4 Visual
Профиль формата : Advanced Simple@L5
Настройки формата : BVOP1 / Custom Matrix
Параметр BVOP формата : 1
Параметр QPel формата : Нет
Параметр GMC формата : Без точки перехода
Параметр матрицы формата : Выборочная
Идентификатор кодека : XVID
Идентификатор кодека/Подсказка : XviD
Продолжительность : 44 м. 17 с.
Битрейт : 1535 Кбит/сек
Ширина : 720 пикселей
Высота : 400 пикселей
Соотношение сторон : 16:9
Частота кадров : 25,000 кадров/сек
Цветовое пространство : YUV
Субдискретизация насыщенности : 4:2:0
Битовая глубина : 8 бит
Тип развёртки : Прогрессивная
Метод сжатия : С потерями
Бит/(Пиксели*Кадры) : 0.213
Размер потока : 486 Мбайт (88%)
Библиотека кодирования : XviD 73

Аудио
Идентификатор : 1
Формат : AC-3
Формат/Информация : Audio Coding 3
Идентификатор кодека : 2000
Продолжительность : 44 м. 17 с.
Вид битрейта : Постоянный
Битрейт : 192 Кбит/сек
Каналы : 2 канала
Расположение каналов : Front: L R
Частота : 48,0 КГц
Частота кадров : 31,250 кадров/сек (1536 SPF)
Битовая глубина : 16 бит
Метод сжатия : С потерями
Размер потока : 60,8 Мбайт (11%)
Выравнивание : Разделение по промежуткам
Продолжительность промежутка : 40 мс. (1,00 видеокадр)
Время предзагрузки промежутка : 500 мс.
ServiceKind/String : Complete Main

pb.wtf



Скачать Чужие родные через торрент http://i100.fastpic.ru/big/2018/0227/36/57982d8df40fbb27c44ec1f4e4a7d536.png Скачать фильм Чужие родные через торрент бесплантно в хорошем качестве Описание: Главная героиня фильма – молодая балерина Юля. Ее мать – хореограф – готовит свою девочку к отбору на зарубежные гастроли театра. ... 9.7 10 3
Info! Золотая раздача, скачанное не засчитывается.
Торрент: Зарегистрирован [2018-03-02 08:58] · скачан: 62 раз
Статус: √ проверено
Размер: 4.3 GB
Как cкачать? Как скачать Чужие родные через торрент | qTorrent

% Раздел Тема Автор DL S | L
Наши сериалы [ 17.62 GB ] Чужие родные / Сезон 1 / Серии 1-8 из 8 [2017 HDTV 1080p] [Русский] R.G.Generalfilm White Smoke Скачать
1 | 0

28-11-2019 20:33  

Отключить всю рекламу на сайте

    Дорогой пользователь! Огромная просьба, поблагодарите релизера, оцените раздачу и оставьте свои комментарий, если Вы скачали Чужие родные через торрент бесплатно! Внесите свою лепту в развитие PiratBit!
    Комментировать посты могут только пользователи прошедшие не сложную регистрацию
    Показать сообщения:    

    Чужие родные через торрент
    Скачать бесплатно Чужие родные
    Чужие родные скачать торрент
    Чужие родные смотреть онлайн
    Cкачать фильм Чужие родные бесплатно
    Чужие родные скачать торрент в хорошем качестве
    Чужие родные смотреть онлайн бесплатно в хорошем качестве


    Вы не можете начинать темы
    Вы не можете отвечать на сообщения
    Вы не можете редактировать свои сообщения
    Вы не можете удалять свои сообщения
    Вы не можете голосовать в опросах
    Вы не можете прикреплять файлы к сообщениям
    Вы можете скачивать файлы