новый адрес
Мега распродажа FORZA HORIZON 4 ULTIMATE+ВСЕ DLC+ОНЛАЙН всего за 499р. 349 руб. (супер цена). Внимание количество ограничено!!!

iTunes

1+1

iTunes

мы

iTunes

1

iTunes

Чернобыль

iTunes

Ральф против интернета

Лицензия

ПШазам

Лицензия

Игра престолов

Лицензия

30
pack

ВАЖНО

!!Акция!!

Alien_RageХит недели

RePack

Resident Evil 21

ИГРА 18+

pack

RePack

Metro:Exodus

!!Акция!!

Alien_Rage

RePack

fifa19

RePack

Assassins Creed: Odyssey

RePack

NEED FOR SPEED™ PAYBACK

3 сезон

9 сезон

Бесстыжие 9 сезон

Все сериалы

все сериалы на PB.wtf

RePack

FAR CRY 5
Ребята, катастрофически не хватает 1900р. для оплаты серверов за Октябрь (всвязи с блокировками трафик упал в 3 раза), 1-2р., выручайте.
  

Кроткая (Александр Борисов) [1960, СССР, драма, DVDRip от AVP Studio] pb.wtf

Кроткая через торрент pb.wtf

Размер: 1.09 GB | Добавлен: 1 год 8 мес. назад | Торрент скачан:10 раз
Скачать  

02-03-2018 09:02 Кроткая Скачать торрент  

Кроткая
Страна: СССР
Производство: Ленфильм

Жанр: драма
Год выпуска: 1960
Продолжительность: 01:07:56

Перевод: Не требуется
Cубтитры: нет
Оригинальная аудиодорожка: русский

Режиссер: Александр Борисов

В ролях:
Ия Саввина, Андрей Попов, Вера Кузнецова, Пантелеймон Крымов...
Об актёрах подробней

Описание:
Экранизация одноименного рассказа Ф.Достоевского.
Немолодой уже Ростовщик рассказывает историю своей любви к юной барышне, бедной, но гордой.
Однажды из окна дома в Петербурге бросилась на мостовую молодая женщина. Это был последний бунт Кроткой...

Источник: DVD9 R5
Качество видео: DVDRip
Формат видео: AVI

Видео: 720x544 (4:3), 25,000 кадров/сек, XviD ~ 1840 kbps avg, 0.188 bit/pixel
Аудио: 48 kHz, Dolby Digital AC3 5.1, 448 kbps

Раздача от:
Общее
Полное имя : Krotkaya.1960.DVDRip_[New-team]_by_AVP_Studio.avi
Формат : AVI
Формат/Информация : Audio Video Interleave
Размер файла : 1,09 Гбайт
Продолжительность : 1 ч. 7 м.
Общий поток : 2297 Кбит/сек
Программа кодирования : VirtualDubMod 1.5.10.3 | www.virtualdub-fr.org || (build 2550/release)
Библиотека кодирования : VirtualDubMod build 2550/release

Видео
Идентификатор : 0
Формат : MPEG-4 Visual
Профиль формата : Advanced Simple@L5
Настройки формата : BVOP1 / Custom Matrix
Параметр BVOP формата : 1
Параметр QPel формата : Нет
Параметр GMC формата : Без точки перехода
Параметр матрицы формата : Выборочная
Идентификатор кодека : XVID
Идентификатор кодека/Подсказка : XviD
Продолжительность : 1 ч. 7 м.
Битрейт : 1840 Кбит/сек
Ширина : 720 пикселей
Высота : 544 пикселя
Соотношение сторон : 4:3
Частота кадров : 25,000 кадров/сек
Цветовое пространство : YUV
Субдискретизация насыщенности : 4:2:0
Битовая глубина : 8 бит
Тип развёртки : Прогрессивная
Метод сжатия : С потерями
Бит/(Пиксели*Кадры) : 0.188
Размер потока : 894 Мбайт (80%)
Библиотека кодирования : XviD 73

Аудио
Идентификатор : 1
Формат : AC-3
Формат/Информация : Audio Coding 3
Идентификатор кодека : 2000
Продолжительность : 1 ч. 7 м.
Вид битрейта : Постоянный
Битрейт : 448 Кбит/сек
Каналы : 6 каналов
Расположение каналов : Front: L C R, Side: L R, LFE
Частота : 48,0 КГц
Частота кадров : 31,250 кадров/сек (1536 SPF)
Битовая глубина : 16 бит
Метод сжатия : С потерями
Размер потока : 218 Мбайт (19%)
Выравнивание : Разделение по промежуткам
Продолжительность промежутка : 40 мс. (1,00 видеокадр)
Время предзагрузки промежутка : 500 мс
pb.wtf



Скачать Кроткая через торрент http://picplus.ru/img/1803/02/1ee92078.png Скачать фильм Кроткая через торрент бесплантно в хорошем качестве Описание:Экранизация одноименного рассказа Ф.Достоевского.Немолодой уже Ростовщик рассказывает историю своей любви к юной барышне, бедной, ... 10 10 1
Info! Золотая раздача, скачанное не засчитывается.
Торрент: Зарегистрирован [2018-03-02 09:02] · скачан: 10 раз
Статус: √ проверено
Размер: 1.09 GB
Как cкачать? Как скачать Кроткая через торрент | qTorrent

% Раздел Тема Автор DL S | L
Наши новые фильмы 2017 [ 1.46 GB ] Кроткая [2017 BDRip] [Русский] [] Twi7ter Скачать
1 | 0
Наши новые фильмы 2017 [ 2.18 GB ] Кроткая [2017 BDRip] [Русский] [] Twi7ter Скачать
2 | 0
Наши новые фильмы 2017 [ 1.46 GB ] Кроткая [2017 BDRip] [] killermax2013 Скачать
1 | 0
Наши новые фильмы 2017 [ 2.18 GB ] Кроткая [2017 BDRip] [] killermax2013 Скачать
1 | 0
Кино СССР [ 1.09 GB ] Кроткая [1960 СССР DVDRip-AVC от AVP Studio] AVP Studio Скачать
1 | 0
Кино СССР [ 746 MB ] Кроткая [1960 СССР DVDRip от AVP Studio] AVP Studio Скачать
1 | 0
Наши новые фильмы 2017 [ 2.05 GB ] Кроткая [2017 WEB-DLRip] oleg8 Скачать
1 | 0


>> Регистрируемся здесь <<






Отзывы и комментарии о схеме читаем и пишем здесь: ---> Отзывы и комментарии о схеме

Новые благодарочки в телеграм довольных пользователей:
скриншот   скриншот   скриншот   скриншот   скриншот
    Дорогой пользователь! Огромная просьба, поблагодарите релизера, оцените раздачу и оставьте свои комментарий, если Вы скачали Кроткая через торрент бесплатно! Внесите свою лепту в развитие PiratBit!
    Комментировать посты могут только пользователи прошедшие не сложную регистрацию
    Показать сообщения:    

    Кроткая через торрент
    Скачать бесплатно Кроткая
    Кроткая скачать торрент
    Кроткая смотреть онлайн
    Cкачать фильм Кроткая бесплатно
    Кроткая скачать торрент в хорошем качестве
    Кроткая смотреть онлайн бесплатно в хорошем качестве


    Вы не можете начинать темы
    Вы не можете отвечать на сообщения
    Вы не можете редактировать свои сообщения
    Вы не можете удалять свои сообщения
    Вы не можете голосовать в опросах
    Вы не можете прикреплять файлы к сообщениям
    Вы можете скачивать файлы