Ссылка на приватное зеркало нашего сайта всего за 1$. Внимание количество ограничено!!!

2 сезон

iTunes

1 сезон

1

iTunes

iTunes

iTunes

1 сезон

RePack

30

ИГРА 18+

pack

ВАЖНО

!!Акция!!

Alien_RageХит недели

RePack

MK11
pack

Забери бонус

RePack

jed

!!Акция!!

Alien_Rage

RePack

fifa19

RePack

Assassins Creed: Odyssey

RePack

NEED FOR SPEED™ PAYBACK

4 сезон

9 сезон

Бесстыжие 9 сезон

Все сериалы

все сериалы на PB.wtf

RePack

FAR CRY 5
  

Кровавая барыня / Сезон: 1 / Серии: 1-16 из 16 (Егор Анашкин) [2018, Драма, история, HDTVRip 720p] pb.wtf

Кровавая барыня через торрент pb.wtf

Размер: 21.23 GB | Добавлен: 2 года 7 мес. назад | Торрент скачан:122 раза
Скачать  

02-03-2018 09:06 Кровавая барыня Скачать торрент  

Кровавая барыня Год выпуска: 2018
Страна: Россия
Жанр: Драма, история
Продолжительность: ~00:52:00
Субтитры: отсутствуют

Режиссер: Егор Анашкин



В ролях:

Юлия Снигирь, Кристина Бабушкина, Северия Янушаускайте, Фёдор Лавров, Влад Соколовский, Юрий Цурило, Даниил Муравьев-Изотов, Пётр Рыков, Марта Тимофеева, Игорь Ясулович, Анна Гуляренко, Екатерина Копанова, Анастасия Зенкович, Валентин Варецкий, Михаил Васьков, Юрий Шлыков, Лилия Пысларь, Сергей Шеховцов

Описание:

Восемнадцатый век. Российская Империя. Загадка судьбы единственной в истории России женщины — серийной убийцы. Высокородная столбовая дворянка Дарья Салтыкова оказалась безжалостной преступницей. Молодая набожная вдова превратилась в «мучительницу и душегубицу». Но не властолюбие и жестокость привели Салтыкову на плаху… Дарья была одержима страстью к Сергею Салтыкову — первому фавориту императрицы Екатерины Второй

Качество: HDTVRip 720p
Формат: MKV

Видео: MPEG-4 AVC, ~ 3500 Кбит/с, 1280x536, 25 Кадр/с
Аудио: AC3, 2 ch, 192 Кбит/с
скриншот  скриншот  скриншот  

Общее
Уникальный идентификатор : 180396505548036588816725686404601574070 (0x87B71A6AA5328F9AADE8F8AD16DB72B6)
Полное имя : E:\торреннты\Krovavaja barynja.HDTVRip.(720p).GeneralFilm\01.Krovavaja barynja.HDTVRip.(720p).GeneralFilm.mkv
Формат : Matroska
Версия формата : Version 2
Размер файла : 1,34 Гбайт
Продолжительность : 52 м. 7 с.
Общий поток : 3694 Кбит/сек
Дата кодирования : UTC 2018-02-19 20:29:54
Программа кодирования : mkvmerge v6.1.0 ('Old Devil') built on Mar 4 2013 09:10:42
Библиотека кодирования : libebml v1.3.0 + libmatroska v1.4.0

Видео
Идентификатор : 1
Формат : AVC
Формат/Информация : Advanced Video Codec
Профиль формата : High@L4.1
Настройки формата : CABAC / 9 Ref Frames
Параметр CABAC формата : Да
Параметр RefFrames формата : 9 кадров
Идентификатор кодека : V_MPEG4/ISO/AVC
Продолжительность : 52 м. 7 с.
Битрейт : 3500 Кбит/сек
Ширина : 1280 пикселей
Высота : 536 пикселей
Соотношение сторон : 2,40:1
Режим частоты кадров : Постоянный
Частота кадров : 25,000 кадров/сек
Цветовое пространство : YUV
Субдискретизация насыщенности : 4:2:0
Битовая глубина : 8 бит
Тип развёртки : Прогрессивная
Бит/(Пиксели*Кадры) : 0.204
Размер потока : 1,25 Гбайт (93%)
Библиотека кодирования : x264 core 130 r2273 b3065e6
Настройки программы : cabac=1 / ref=9 / deblock=1:-2:-1 / analyse=0x3:0x133 / me=umh / subme=9 / psy=1 / psy_rd=1.00:0.15 / mixed_ref=1 / me_range=32 / chroma_me=1 / trellis=2 / 8x8dct=1 / cqm=0 / deadzone=21,11 / fast_pskip=0 / chroma_qp_offset=-3 / threads=18 / lookahead_threads=3 / sliced_threads=0 / nr=0 / decimate=0 / interlaced=0 / bluray_compat=0 / constrained_intra=0 / bframes=9 / b_pyramid=2 / b_adapt=2 / b_bias=0 / direct=3 / weightb=1 / open_gop=0 / weightp=2 / keyint=250 / keyint_min=25 / scenecut=40 / intra_refresh=0 / rc=2pass / mbtree=0 / bitrate=3500 / ratetol=1.0 / qcomp=0.60 / qpmin=0 / qpmax=69 / qpstep=4 / cplxblur=20.0 / qblur=0.5 / ip_ratio=1.40 / pb_ratio=1.30 / aq=2:1.00
Default : Да
Forced : Нет
Цветовой диапазон : Limited
Основные цвета : BT.709
Характеристики трансфера : BT.709
Коэффициенты матрицы : BT.709

Аудио
Идентификатор : 2
Формат : AC-3
Формат/Информация : Audio Coding 3
Идентификатор кодека : A_AC3
Продолжительность : 52 м. 7 с.
Вид битрейта : Постоянный
Битрейт : 192 Кбит/сек
Каналы : 2 канала
Расположение каналов : Front: L R
Частота : 48,0 КГц
Частота кадров : 31,250 кадров/сек (1536 SPF)
Битовая глубина : 16 бит
Метод сжатия : С потерями
Размер потока : 71,6 Мбайт (5%)
ServiceKind/String : Complete Main
Default : Да
Forced : Нет

pb.wtf



Скачать Кровавая барыня через торрент http://i99.fastpic.ru/big/2018/0219/c5/8e031c16640d16784cef04a3e0909cc5.png Скачать фильм Кровавая барыня через торрент бесплантно в хорошем качестве Описание: Восемнадцатый век. Российская Империя. Загадка судьбы единственной в истории России женщины — серийной убийцы. Высокородная ... 8.8 10 4
Info! Золотая раздача, скачанное не засчитывается.
Торрент: Зарегистрирован [2018-03-02 09:06] · скачан: 122 раз
Статус: √ проверено
Размер: 21.23 GB
Как cкачать? Как скачать Кровавая барыня через торрент | qTorrent

% Раздел Тема Автор DL S | L
Наши сериалы [ 10.15 GB ] Кровавая барыня / Сезон: 1 / Серии: 1-16 из 16 [2018 история HDTVRip] bober100 Скачать
1 | 0
Наши сериалы [ 41.38 GB ] Кровавая барыня Сезон 1 / [2018 история HDTV 1080p] [Русский] Generalfilm White Smoke Скачать
1 | 0
Наши сериалы [ 12.61 GB ] Кровавая барыня / Сезон: 1 / Серии: 1-16 из 16 [2018 история HDTVRip-AVC] bober100 Скачать
1 | 0

28-11-2019 20:33  

Отключить всю рекламу на сайте

    Дорогой пользователь! Огромная просьба, поблагодарите релизера, оцените раздачу и оставьте свои комментарий, если Вы скачали Кровавая барыня через торрент бесплатно! Внесите свою лепту в развитие PiratBit!
    Комментировать посты могут только пользователи прошедшие не сложную регистрацию
    Показать сообщения:    

    Кровавая барыня через торрент
    Скачать бесплатно Кровавая барыня
    Кровавая барыня скачать торрент
    Кровавая барыня смотреть онлайн
    Cкачать фильм Кровавая барыня бесплатно
    Кровавая барыня скачать торрент в хорошем качестве
    Кровавая барыня смотреть онлайн бесплатно в хорошем качестве


    Вы не можете начинать темы
    Вы не можете отвечать на сообщения
    Вы не можете редактировать свои сообщения
    Вы не можете удалять свои сообщения
    Вы не можете голосовать в опросах
    Вы не можете прикреплять файлы к сообщениям
    Вы можете скачивать файлы