2 сезон

iTunes

MVO

1

2 сезон

iTunes

iTunes

1 сезон

RePack

30

Новинка

ВАЖНО

ИГРА 18+

pack

RePack

MK11
pack

Легкие деньги

RePack

jed

RePack

fifa19

RePack

RDR2

RePack

NEED FOR SPEED™ PAYBACK

4 сезон

9 сезон

Бесстыжие 9 сезон

Все сериалы

все сериалы на PB.wtf

RePack

FAR CRY 5

Anonymous, доброй ночи, мы не успеваем собрать деньги на оплату серверов за декабрь и январь, помогите нам пожалуйста в это трудное время. В качестве благодарности мы отключим Вам всю рекламу на сайте (укажите свой ник в строку Ваше имя)!

×
  
Magnet ссылка

Мистер Гоу в 3Д / Mr. Go 3D (Ким Ён-хва / Kim Yong-hwa) [2013, Комедия, драма, приключения, BDrip, 1080p] OverUnder / Вертикальная стереопара pb.wtf

Мистер Гоу в 3Д через торрент pb.wtf

Размер: 23.24 GB | Добавлен: 2 года 10 мес. назад | Торрент скачан:6 раз
Скачать  

02-03-2018 14:58 Мистер Гоу в 3Д Скачать торрент  

Мистер Гоу / Mr. Go / Mi-seu-teo Go

Год выпуска: 2013
Страна: Южная Корея(Dexter Studios, Pixeltree studio)
Жанр: Комедия, драма, приключения
Продолжительность: 2:12:54

Перевод: Одноголосый закадровый(PashaUP он же П. Морозов)
Русские субтитры: нет
Режиссер: Ким Ён-хва / Kim Yong-hwa

В ролях: Сон Дон Иль, Цзяо Сюй, Ким Хи Вон, Ким Кан У, Дзё Одагири, Чон Ин Ги, Jae-yun Jo, Ким Ын Су, Heung-rae Kim, Jung-tae Kim

Описание: О молодой китайской девушке, её питомцах,... о несчастных и счастливых, о добре и зле, о лютой ненависти и... святой любви народа Южной Кореи к бейсболу

Сэмпл: http://sendfile.su/1402908

Качество: BDrip, 1080p
Контейнер: MKV
Формат 3D: OverUnder / Вертикальная стереопара
Порядок ракурсов: правый ракурс первый
Видео кодек: x264
Аудио кодек: AC3
Видео: AVC / High@L5.0 / 23,976 fps / 1920х2160 / 22,1 Мбит/сек
Аудио: Русский / AC3 / 48 KHz / 5.1 ch / 448 Кбит/сек(PashaUP он же П. Морозов)

ВНИМАНИЕ ! На встроенных ТВ-плеерах работать не будет!!!

ТВ Samsung в названии которого есть надпись Ultra HD , и LG Ultra HD 800 серии, LG C6P, Xiaomi Mi TV 2 воспроизводят полные стереопары встроенными плеерами
Железные плееры на которых воспроизводятся полные стереопары:Popcorn C-200 , Dune HD Smart D1 , Dune HD DUO , Dune HD Smart H1 , Dune HD Smart B1 , Dune HD Max , Dune HD TV-303D, Dune HD TV-102, Dune HD Base 3D, Philips HMP7001, Aura HD, MECOOL BB2
Чтобы изображение было на весь экран в плеере выставляем, если рип 1920х1600 - то выставляем 2.35:1 , если 1920х2160 - то выставляем 16:9
Общее
Уникальный идентификатор : 211687671056966357997782475547106489981 (0x9F418FFD06A94267BFEB20FBAA4A367D)
Полное имя : F:\закачки\Mr. Go.Rip by SeRoGa00.mkv
Формат : Matroska
Версия формата : Version 2
Размер файла : 23,2 Гбайт
Продолжительность : 2 ч. 24 м.
Общий поток : 23,0 Мбит/сек
Дата кодирования : UTC 2018-03-02 02:12:58
Программа кодирования : mkvmerge v3.4.0 ('Rapunzel') сборка от May 15 2010 09:38:20
Библиотека кодирования : libebml v0.8.0 + libmatroska v0.9.0

Видео
Идентификатор : 1
Формат : AVC
Формат/Информация : Advanced Video Codec
Профиль формата : High@L5.0
Параметр CABAC формата : Да
Параметр ReFrames формата : 4 кадра
Идентификатор кодека : V_MPEG4/ISO/AVC
Продолжительность : 2 ч. 24 м.
Битрейт : 22,1 Мбит/сек
Ширина : 1920 пикселей
Высота : 2160 пикселей
Соотношение сторон : 0,889
Частота кадров : 23,976 кадра/сек
Цветовое пространство : YUV
Субдискретизация насыщенности : 4:2:0
Битовая глубина : 8 бит
Тип развёртки : Прогрессивная
Бит/(Пиксели*Кадры) : 0.222
Размер потока : 22,3 Гбайт (96%)
Заголовок : Rip by SeRoGa00
Библиотека кодирования : x264 core 155 r2901 7d0ff22
Настройки программы : cabac=1 / ref=4 / deblock=1:-3:-3 / analyse=0x3:0x113 / me=umh / subme=10 / psy=1 / psy_rd=1.00:0.15 / mixed_ref=1 / me_range=24 / chroma_me=1 / trellis=2 / 8x8dct=1 / cqm=0 / deadzone=21,11 / fast_pskip=1 / chroma_qp_offset=-3 / threads=12 / lookahead_threads=6 / sliced_threads=0 / nr=0 / decimate=0 / interlaced=0 / bluray_compat=0 / constrained_intra=0 / bframes=10 / b_pyramid=2 / b_adapt=2 / b_bias=0 / direct=3 / weightb=1 / open_gop=0 / weightp=2 / keyint=250 / keyint_min=23 / scenecut=40 / intra_refresh=0 / rc_lookahead=60 / rc=crf / mbtree=1 / crf=18.0 / qcomp=0.60 / qpmin=10 / qpmax=69 / qpstep=4 / vbv_maxrate=40000 / vbv_bufsize=40000 / crf_max=0.0 / nal_hrd=none / filler=0 / ip_ratio=1.40 / aq=1:1.00
Язык : English
Default : Нет
Forced : Нет

Аудио
Идентификатор : 2
Формат : AC-3
Формат/Информация : Audio Coding 3
Расширение режима : CM (complete main)
Параметр Endianness формата : Big
Идентификатор кодека : A_AC3
Продолжительность : 2 ч. 24 м.
Вид битрейта : Постоянный
Битрейт : 448 Кбит/сек
Каналы : 6 каналов
Расположение каналов : Front: L C R, Side: L R, LFE
Частота : 48,0 КГц
Битовая глубина : 16 бит
Метод сжатия : С потерями
Размер потока : 463 Мбайт (2%)
Язык : Russian
Default : Да
Forced : Нет

Меню
00:00:00.000 : en:00:00:00.000
00:12:42.637 : en:00:12:42.637
00:21:35.794 : en:00:21:35.794
00:33:11.281 : en:00:33:11.281
00:45:44.867 : en:00:45:44.867
00:55:41.922 : en:00:55:41.922
01:03:53.663 : en:01:03:53.663
01:17:18.050 : en:01:17:18.050
01:30:19.873 : en:01:30:19.873
01:39:59.785 : en:01:39:59.785
01:50:42.553 : en:01:50:42.553
02:02:06.569 : en:02:02:06.569
скриншот   скриншот   скриншот   скриншот   скриншот   скриншот  
pb.wtf



Скачать Мистер Гоу в 3Д через торрент https://d.radikal.ru/d30/1803/ba/0bd10dae4357.png Скачать фильм Мистер Гоу в 3Д через торрент бесплантно в хорошем качестве Описание: О молодой китайской девушке, её питомцах,... о несчастных и счастливых, о добре и зле, о лютой ненависти и... святой любви народа ... 5 10 1
Info! Золотая раздача, скачанное не засчитывается.
Торрент: Зарегистрирован [2018-03-02 14:58] · скачан: 6 раз
Статус: √ проверено
Размер: 23.24 GB
Как cкачать? Как скачать Мистер Гоу в 3Д через торрент | UTorrent

28-11-2019 20:33  

Отключить всю рекламу на сайте

    Дорогой пользователь! Огромная просьба, поблагодарите релизера, оцените раздачу и оставьте свои комментарий, если Вы скачали Мистер Гоу в 3Д через торрент бесплатно! Внесите свою лепту в развитие PiratBit!
    Комментировать посты могут только пользователи прошедшие не сложную регистрацию
    Показать сообщения:    

    Мистер Гоу в 3Д через торрент
    Скачать бесплатно Мистер Гоу в 3Д
    Мистер Гоу в 3Д скачать торрент
    Мистер Гоу в 3Д смотреть онлайн
    Cкачать фильм Мистер Гоу в 3Д бесплатно
    Мистер Гоу в 3Д скачать торрент в хорошем качестве
    Мистер Гоу в 3Д смотреть онлайн бесплатно в хорошем качестве


    Вы не можете начинать темы
    Вы не можете отвечать на сообщения
    Вы не можете редактировать свои сообщения
    Вы не можете удалять свои сообщения
    Вы не можете голосовать в опросах
    Вы не можете прикреплять файлы к сообщениям
    Вы можете скачивать файлы