Ссылка на приватное зеркало нашего сайта всего за 1$. Внимание количество ограничено!!!

2 сезон

iTunes

1 сезон

1

2 сезон

2 сезон

iTunes

1 сезон

RePack

30

Ultimate

ВАЖНО

ИГРА 18+

pack

RePack

MK11
pack

Забери бонус

RePack

jed

!!Акция!!

Alien_Rage

RePack

fifa19

RePack

Assassins Creed: Odyssey

RePack

NEED FOR SPEED™ PAYBACK

4 сезон

9 сезон

Бесстыжие 9 сезон

Все сериалы

все сериалы на PB.wtf

RePack

FAR CRY 5
  

Призрачная башня / The Looming Tower / Сезон: 1 / Серия 1-10 из 10 (Крейг Зиск, Майкл Словис, Алекс Гибни) [2018, США, драма, WEBRip 720p] MVO [BaibaKo] pb.wtf

Призрачная башня через торрент pb.wtf

Размер: 17.58 GB | Добавлен: 2 года 7 мес. назад | Торрент скачан:5 раз
Скачать  

03-03-2018 00:11 Призрачная башня Скачать торрент  


Призрачная башня / The Looming Tower



  • Год выпуска: 2018
  • Страна: США
  • Жанр: драма
  • Продолжительность: 00:50:00 (Серия)
  • Перевод: Профессиональный многоголосый [BaibaKo]
  • Режиссер: Крейг Зиск, Майкл Словис, Алекс Гибни
  • В ролях:
    Мэтт Джонс, Келли П. Уильямс, Эрика Чо, Кэти Флэхайв, Дженни Пол, Самер Бишарат, Джеймс Ньюманн, Тауфик Бархом, Кимберли С. Фербенкс, Джордан Лейдж



  • В центре событий — агенты ФБР и ЦРУ, которые объединяют усилия в борьбе с растущей террористической угрозой со стороны Усамы бен Ладена и «Аль-Каиды». Однако вскоре ведомства начинают соперничать друг с другом, что в итоге приводит к трагедии 11 сентября и войне в Ираке.
  • Рейтинг:

    rating
  • Качество: WEBRip 720p
  • Формат: MKV
  • Видео кодек: AVC
  • Аудио кодек: AC-3
  • Видео: 4340 Кбит/сек, 1280*720 (16:9), в 23,976 (24000/1001) кадра/сек, AVC
  • Аудио №1: русский 640 Кбит/сек, 48,0 КГц, 16 бит, 6 каналов, AC-3 |[BaibaKo]|
  • Аудио №1: английский 640 Кбит/сек, 48,0 КГц, 16 бит, 6 каналов, AC-3
  • Релиз от: GEKADOL

    Внимание! Раздача ведётся путём добавления новых серий; при каждом добавлении создаётся новый торрент. Чтобы начать докачку новой серии, пользователям необходимо сделать следующее:
    (1) остановить скачивание,
    (2) удалить старый торрент у себя из клиента (старые серии удалять не надо),
    (3) скачать новый торрент и запустить его у себя в клиенте вместо старого, при этом указать клиенту путь в старую папку куда и должно происходить скачивание новых серий.
    Ваш клиент при этом должен произвести хеширование (проверку) старой папки (если не производит сам - помогите ему сделать это), и будет докачивать только те серии которых у вас ещё нет. Старые серии при этом не удаляются, а продолжают раздаваться!
    Eсли вы уже удалили старые серии, то предотвратить повторную закачку старых серий можно, отжав галочку в соответствующих местах при запуске нового торрента. По возможности, желательно не удалять старые серии как можно дольше чтобы релизёр не столько продолжал раздавать старые серии, а смог сконцентрироваться на новых.
    Общее
    Уникальный идентификатор : 125700040307892285643428207574762465871 (0x5E90F279566E9C3C0D6542D4BC252A4F)
    Полное имя : F:\Призрачная башня (The Looming Tower) 720\The.Looming.Tower.s01e01.HD720p.WEBRip.Rus.Eng.BaibaKo.mkv
    Формат : Matroska
    Версия формата : Version 4 / Version 2
    Размер файла : 1,88 Гбайт
    Продолжительность : 47 м. 52 с.
    Общий поток : 5622 Кбит/сек
    Дата кодирования : UTC 2018-03-02 23:25:04
    Программа кодирования : mkvmerge v20.0.0 ('I Am The Sun') 64-bit
    Библиотека кодирования : libebml v1.3.5 + libmatroska v1.4.8
    Writing frontend : StaxRip v1.6.0.0

    Видео
    Идентификатор : 1
    Формат : AVC
    Формат/Информация : Advanced Video Codec
    Профиль формата : High@L3.1
    Настройки формата : CABAC / 3 Ref Frames
    Параметр CABAC формата : Да
    Параметр RefFrames формата : 3 кадра
    Идентификатор кодека : V_MPEG4/ISO/AVC
    Продолжительность : 47 м. 52 с.
    Битрейт : 4340 Кбит/сек
    Ширина : 1280 пикселей
    Высота : 720 пикселей
    Соотношение сторон : 16:9
    Режим частоты кадров : Постоянный
    Частота кадров : 23,976 (24000/1001) кадра/сек
    Цветовое пространство : YUV
    Субдискретизация насыщенности : 4:2:0
    Битовая глубина : 8 бит
    Тип развёртки : Прогрессивная
    Бит/(Пиксели*Кадры) : 0.196
    Размер потока : 1,45 Гбайт (77%)
    Default : Да
    Forced : Нет

    Аудио #1
    Идентификатор : 2
    Формат : AC-3
    Формат/Информация : Audio Coding 3
    Идентификатор кодека : A_AC3
    Продолжительность : 47 м. 52 с.
    Вид битрейта : Постоянный
    Битрейт : 640 Кбит/сек
    Каналы : 6 каналов
    Расположение каналов : Front: L C R, Side: L R, LFE
    Частота : 48,0 КГц
    Частота кадров : 31,250 кадров/сек (1536 SPF)
    Битовая глубина : 16 бит
    Метод сжатия : С потерями
    Задержка видео : 30 мс.
    Размер потока : 219 Мбайт (11%)
    Язык : Russian
    ServiceKind/String : Complete Main
    Default : Нет
    Forced : Нет

    Аудио #2
    Идентификатор : 3
    Формат : AC-3
    Формат/Информация : Audio Coding 3
    Идентификатор кодека : A_AC3
    Продолжительность : 47 м. 52 с.
    Вид битрейта : Постоянный
    Битрейт : 640 Кбит/сек
    Каналы : 6 каналов
    Расположение каналов : Front: L C R, Side: L R, LFE
    Частота : 48,0 КГц
    Частота кадров : 31,250 кадров/сек (1536 SPF)
    Битовая глубина : 16 бит
    Метод сжатия : С потерями
    Задержка видео : 30 мс.
    Размер потока : 219 Мбайт (11%)
    Язык : English
    ServiceKind/String : Complete Main
    Default : Нет
    Forced : Нет



    Скриншоты:
    скриншот   скриншот   скриншот   скриншот   скриншот   скриншот   скриншот  
    скриншот  

    Раздача ведётся путём добавления новых серий. Добавлена 10 серия (24.04.2018).Просьба перекачать торрент файл.

    pb.wtf



  • Скачать Призрачная башня через торрент http://pic1.kartinco.top/images/11/o8fy7.jpg Скачать фильм Призрачная башня через торрент бесплантно в хорошем качестве qw.png В центре событий — агенты ФБР и ЦРУ, которые объединяют усилия в борьбе с растущей террористической угрозой со стороны Усамы бен ... 10 10 3
    Info! Золотая раздача, скачанное не засчитывается.
    Торрент: Зарегистрирован [2018-04-24 05:21] · скачан: 5 раз
    Статус: √ проверено
    Размер: 17.58 GB
    Как cкачать? Как скачать Призрачная башня через торрент | qTorrent

    % Раздел Тема Автор DL S | L
    Зарубежные сериалы [ 24.62 GB ] Призрачная башня / The Looming Tower / Сезон: 1 / Серии: 1-10 из 10 [2018 WEBRip 1080p] MVO [TVShows] bober100 Скачать
    1 | 0
    Зарубежные сериалы [ 5.86 GB ] Призрачная башня / The Looming Tower / Сезон: 1 / Серии: 1-10 из 10 [2018 WEB-DLRip] MVO [LostFilm] bober100 Скачать
    1 | 0
    Зарубежные сериалы [ 8.13 GB ] Призрачная башня / The Looming Tower / Сезон: 1 / Серии: 1-10 из 10 [2018 WEBRip 720p] DVO [SunshineStudio] bober100 Скачать
    1 | 0
    Зарубежные сериалы [ 5.84 GB ] Призрачная башня / The Looming Tower / Сезон: 1 / Серии: 1-10 из 10 [2018 WEBRip] DVO [SunshineStudio] bober100 Скачать
    1 | 0
    Зарубежные сериалы [ 24.86 GB ] Призрачная башня / The Looming Tower / Сезон: 1 / Серии: 1-10 из 10 [2018 WEBRip 1080p] MVO [Jaskier] bober100 Скачать
    1 | 0
    Зарубежные сериалы [ 16.92 GB ] Призрачная башня / The Looming Tower / Сезон 1 / Серии 1 - 10 из 10 [2018 WEBRip 1080p] MVO senya120879 Скачать
    1 | 0
    Зарубежные сериалы [ 11 GB ] Призрачная башня / The Looming Tower / Сезон: 1 / Серии: 1-10 из 10 [2018 WEBRip 720p] MVO [Jaskier] bober100 Скачать
    1 | 0


    Последний раз редактировалось: GEKADOL (2018-04-24 05:21), всего редактировалось 9 раз(а)

    28-11-2019 20:33  

    Отключить всю рекламу на сайте

    05-03-2018 18:56 Призрачная башня Скачать торрент  

    Интересно, забираю, плюс фильм от hulu, сервис не хуже нетфликс и амазонpb.wtf



      Дорогой пользователь! Огромная просьба, поблагодарите релизера, оцените раздачу и оставьте свои комментарий, если Вы скачали Призрачная башня через торрент бесплатно! Внесите свою лепту в развитие PiratBit!
      Комментировать посты могут только пользователи прошедшие не сложную регистрацию
      Показать сообщения:    

      Призрачная башня через торрент
      Скачать бесплатно Призрачная башня
      Призрачная башня скачать торрент
      Призрачная башня смотреть онлайн
      Cкачать фильм Призрачная башня бесплатно
      Призрачная башня скачать торрент в хорошем качестве
      Призрачная башня смотреть онлайн бесплатно в хорошем качестве


      Вы не можете начинать темы
      Вы не можете отвечать на сообщения
      Вы не можете редактировать свои сообщения
      Вы не можете удалять свои сообщения
      Вы не можете голосовать в опросах
      Вы не можете прикреплять файлы к сообщениям
      Вы можете скачивать файлы