Ссылка на приватное зеркало всего за 1$. Внимание количество ограничено!!!

OK

1+1

iTunes

мы

OK

1

WEB-DLRip

Джокер

Пифагор

Ведьмак / The Witcher сериал

iTunes

ПШазам

ОК

Оно 2

iTunes

30
pack

Вам бонус

ВАЖНО

!!Акция!!

Alien_RageХит недели

RePack

Resident Evil 21

ИГРА 18+

pack

RePack

jed

RePack

fifa19

RePack

Assassins Creed: Odyssey

RePack

NEED FOR SPEED™ PAYBACK

4 сезон

9 сезон

Бесстыжие 9 сезон

Все сериалы

все сериалы на PB.wtf

RePack

FAR CRY 5
  

Загнанный / Battle of the Drones (Мишель Гулд) [2017 г., боевик, WEB-DLRip, Любительский (многоголосый) [@MUZOBOZ@]] pb.wtf

Загнанный через торрент pb.wtf

Размер: 1.37 GB | Добавлен: 1 год 10 мес. назад | Торрент скачан:601 раз
Скачать  

03-03-2018 05:12 Загнанный Скачать торрент  

Загнанный / Battle of the Drones
Год выпуска: 2017
Страна: США
Жанр: боевик
Продолжительность: 01:35:51
Перевод: Любительский (многоголосый) [@MUZOBOZ@]
Субтитры: нет

Режиссер: Мишель Гулд



В ролях: Доминик Суэйн, Наташа Мальте, Майкл Паре, Джейсон Эрлз, Луис Мэндилор, Олег Тактаров, Ричард Рейд, Дэн Сауфуорф, Стив Паунд, Джо Марр

Описание: Смесь "Неудержимых" и Команды «А» превращается в безудержный боевик про группу опытных наёмников, которых предаёт правительство США. Оказавшись в засаде, они вынуждены отбиваться от целой армии людей-киборгов.

Доп. информация: Имеется реклама

Качество: WEB-DLRip
Формат: AVI
Видео кодек: XviD
Аудио кодек: AC3
Видео: 720x304 (2.35:1), 23.976 fps, XviD build 50 ~1648 kbps
Аудио#1: 48 kHz, AC3 Dolby Digital, 2/0 (L,R) ch, ~384 kbps
скриншот   скриншот   скриншот   скриншот   скриншот  

General
Complete name : F:\torrents.by\Battle.of.the.Drones.2017.P.WEB-DLRip.14OOMB_KOSHARA.avi
Format : AVI
Format/Info : Audio Video Interleave
File size : 1.37 GiB
Duration : 1 h 35 min
Overall bit rate : 2 041 kb/s
Writing application : VirtualDubMod 1.5.10.2 (build 2540/release)
Writing library : VirtualDubMod build 2540/release

Video
ID : 0
Format : MPEG-4 Visual
Format profile : Advanced Simple@L5
Format settings : BVOP2
Format settings, BVOP : 2
Format settings, QPel : No
Format settings, GMC : No warppoints
Format settings, Matrix : Default (MPEG)
Codec ID : XVID
Codec ID/Hint : XviD
Duration : 1 h 35 min
Bit rate : 1 648 kb/s
Width : 720 pixels
Height : 304 pixels
Display aspect ratio : 2.35:1
Frame rate : 23.976 (24000/1001) FPS
Color space : YUV
Chroma subsampling : 4:2:0
Bit depth : 8 bits
Scan type : Progressive
Compression mode : Lossy
Bits/(Pixel*Frame) : 0.314
Stream size : 1.10 GiB (81%)
Writing library : XviD 1.2.1 (UTC 2008-12-04)

Audio
ID : 1
Format : AC-3
Format/Info : Audio Coding 3
Codec ID : 2000
Duration : 1 h 35 min
Bit rate mode : Constant
Bit rate : 384 kb/s
Channel(s) : 2 channels
Channel positions : Front: L R
Sampling rate : 48.0 kHz
Frame rate : 31.250 FPS (1536 SPF)
Bit depth : 16 bits
Compression mode : Lossy
Stream size : 263 MiB (19%)
Alignment : Split accross interleaves
Interleave, duration : 42 ms (1.00 video frame)
Interleave, preload duratio : 500 ms
Service kind : Complete Main

pb.wtf



Скачать Загнанный через торрент http://i100.fastpic.ru/big/2018/0303/b9/b20b7bf8453fd1254742d310ce5d2fb9.jpg Скачать фильм Загнанный через торрент бесплантно в хорошем качестве Описание: Смесь "Неудержимых" и Команды «А» превращается в безудержный боевик про группу опытных наёмников, которых предаёт правительство ... 7.9 10 16
Торрент: Зарегистрирован [2018-03-03 05:12] · скачан: 601 раз
Статус: T временная
Размер: 1.37 GB
Как cкачать? Как скачать Загнанный через торрент | qTorrent

28-11-2019 20:33  

Отключить всю рекламу на сайте

03-03-2018 08:47 Загнанный Скачать торрент  

как фильм?pb.wtf



03-03-2018 09:57 Загнанный Скачать торрент  

Олег 8 Спасибо pb.wtf



03-03-2018 14:00 Загнанный Скачать торрент  

А почему жанр боевик, а не фантастика? Или киборги уже прочно вошли в нашу жизнь, что не считается чем-то фантастическим?pb.wtf



03-03-2018 14:27 Загнанный Скачать торрент  

"Battle of the Drones" оказывается переводится как "Загнанный"
Я херею с этих переводчиков
На IMDB он есть.
ratingpb.wtf



05-03-2018 20:46 Загнанный Скачать торрент  

"Смесь "Неудержимых" и Команды «А»" что то не сходится... Здесь ни треша, ни комедии, ни собственно боевика.
Низкосортное гуано не стоящее времени.pb.wtf



    Дорогой пользователь! Огромная просьба, поблагодарите релизера, оцените раздачу и оставьте свои комментарий, если Вы скачали Загнанный через торрент бесплатно! Внесите свою лепту в развитие PiratBit!
    Комментировать посты могут только пользователи прошедшие не сложную регистрацию
    Показать сообщения:    

    Загнанный через торрент
    Скачать бесплатно Загнанный
    Загнанный скачать торрент
    Загнанный смотреть онлайн
    Cкачать фильм Загнанный бесплатно
    Загнанный скачать торрент в хорошем качестве
    Загнанный смотреть онлайн бесплатно в хорошем качестве


    Вы не можете начинать темы
    Вы не можете отвечать на сообщения
    Вы не можете редактировать свои сообщения
    Вы не можете удалять свои сообщения
    Вы не можете голосовать в опросах
    Вы не можете прикреплять файлы к сообщениям
    Вы можете скачивать файлы