2 сезон

iTunes

MVO

1

2 сезон

iTunes

1 сезон

1 сезон

RePack

30

Ultimate

ВАЖНО

ИГРА 18+

pack

RePack

MK11
pack

Легкие деньги

RePack

jed

RePack

fifa19

RePack

RDR2

RePack

NEED FOR SPEED™ PAYBACK

4 сезон

9 сезон

Бесстыжие 9 сезон

Все сериалы

все сериалы на PB.wtf

RePack

FAR CRY 5

Anonymous, добрый день, мы не успеваем собрать деньги на оплату серверов за декабрь и январь, помогите нам пожалуйста в это трудное время. В качестве благодарности мы отключим Вам всю рекламу на сайте (укажите свой ник в строку Ваше имя)!

×
  
Magnet ссылка

Белый клык 2: Легенда о белом волке / White Fang 2: Myth of the White Wolf (Кен Олин) [1994, приключения, семейный, WEB-DLRip-AVC] MVO [iTunes] - ExKinoRay pb.wtf

Белый клык 2: Легенда о белом волке через торрент pb.wtf

Размер: 2.56 GB | Добавлен: 2 года 10 мес. назад | Торрент скачан:64 раза
Скачать  

03-03-2018 06:51 Белый клык 2: Легенда о белом волке Скачать торрент  

Информация о фильме
Название: Белый клык 2: Легенда о белом волке
Оригинальное название: White Fang 2: Myth of the White Wolf
Год выхода: 1994
Жанр: приключения, семейный
Страна: США
Продолжительность: 01:46:09
Перевод: Профессиональный (Многоголосый, Закадровый) (iTunes Russia)
Режиссер: Кен Олин
В ролях: Скотт Бэйрстоу, Чармэйн Крэйг, Аль Хэррингтон, Энтони Руйвивар, Виктория Расимо, Альфред Молина, Пол Койер, Джеффри Льюис, Мэттью Коулз, Вудроу В. Моррисон

Описание: На Диком Западе издавна существовала легенда о белом волке. Никто не мог разгадать этот миф. Но когда древнее индейское племя попало в беду, и золотоискатель Генри со своим псом по кличке Белый Клык встал на его защиту, таинственное предание воплощается в реальность…

rating

Файл
Формат: MKV
Качество: WEB-DLRip-AVC (Источник: iTunes USA/RUS)
Видео: 1024x550 (1.85:1), 23.976 fps, 2880 kbps, 0.213 bit/pixel
Аудио #1: AC3, 2 ch, 192 kbps (Многоголосый iTunes Russia)
Аудио #2: AC-3, 6 ch, 384 kbps (Английский Оригинал)
Субтитры: Английские (SDH)
Навигация: Есть
General
Unique ID : 246470496277440766313061493369542124197 (0xB96C7DACDBEE2E2BA24FBD885B9DA2A5)
Complete name : D:\White.Fang.2.Myth.of.the.White.Wolf.1994.WEB.DLRip.AVC.ExKinoRay.mkv
Format : Matroska
Format version : Version 2
File size : 2.56 GiB
Duration : 1 h 46 min
Overall bit rate : 3 457 kb/s
Movie name : White Fang 2 Myth of the White Wolf 1994 from ExKinoRay
Encoded date : UTC 2018-03-02 22:36:36
Writing application : mkvmerge v5.6.0 ('Kenya Kane') built on May 27 2012 16:44:04
Writing library : libebml v1.2.3 + libmatroska v1.3.0

Video
ID : 1
Format : AVC
Format/Info : Advanced Video Codec
Format profile : High@L4.1
Format settings, CABAC : Yes
Format settings, ReFrames : 11 frames
Codec ID : V_MPEG4/ISO/AVC
Duration : 1 h 46 min
Bit rate : 2 880 kb/s
Width : 1 024 pixels
Height : 550 pixels
Display aspect ratio : 1.85:1
Frame rate mode : Constant
Frame rate : 23.976 (23976/1000) FPS
Color space : YUV
Chroma subsampling : 4:2:0
Bit depth : 8 bits
Scan type : Progressive
Bits/(Pixel*Frame) : 0.213
Stream size : 2.09 GiB (81%)
Title : Enigma
Writing library : x264 core 152 r2851 ba24899
Encoding settings : cabac=1 / ref=11 / deblock=1:-2:-2 / analyse=0x3:0x113 / me=umh / subme=10 / psy=1 / psy_rd=1.03:0.10 / mixed_ref=1 / me_range=32 / chroma_me=1 / trellis=2 / 8x8dct=1 / cqm=0 / deadzone=21,11 / fast_pskip=0 / chroma_qp_offset=-3 / threads=12 / lookahead_threads=3 / sliced_threads=0 / nr=0 / decimate=0 / interlaced=0 / bluray_compat=0 / constrained_intra=0 / bframes=10 / b_pyramid=2 / b_adapt=2 / b_bias=0 / direct=3 / weightb=1 / open_gop=0 / weightp=2 / keyint=240 / keyint_min=23 / scenecut=40 / intra_refresh=0 / rc_lookahead=40 / rc=2pass / mbtree=0 / bitrate=2880 / ratetol=1.0 / qcomp=0.60 / qpmin=0 / qpmax=51 / qpstep=4 / cplxblur=20.0 / qblur=0.5 / vbv_maxrate=50000 / vbv_bufsize=62500 / nal_hrd=none / filler=0 / ip_ratio=1.40 / pb_ratio=1.30 / aq=1:1.00
Language : English
Default : Yes
Forced : No
Color range : Limited
Color primaries : BT.709
Transfer characteristics : BT.709
Matrix coefficients : BT.709

Audio #1
ID : 2
Format : AC-3
Format/Info : Audio Coding 3
Mode extension : CM (complete main)
Format settings, Endianness : Big
Codec ID : A_AC3
Duration : 1 h 46 min
Bit rate mode : Constant
Bit rate : 192 kb/s
Channel(s) : 2 channels
Channel positions : Front: L R
Sampling rate : 44.1 kHz
Frame rate : 28.711 FPS (1536 spf)
Compression mode : Lossy
Stream size : 146 MiB (6%)
Title : MVO (iTunes)
Language : Russian
Default : Yes
Forced : No

Audio #2
ID : 3
Format : AC-3
Format/Info : Audio Coding 3
Mode extension : CM (complete main)
Format settings, Endianness : Big
Codec ID : A_AC3
Duration : 1 h 46 min
Bit rate mode : Constant
Bit rate : 384 kb/s
Channel(s) : 6 channels
Channel positions : Front: L C R, Side: L R, LFE
Sampling rate : 48.0 kHz
Frame rate : 31.250 FPS (1536 spf)
Compression mode : Lossy
Stream size : 292 MiB (11%)
Language : English
Default : No
Forced : No

Text
ID : 4
Format : UTF-8
Codec ID : S_TEXT/UTF8
Codec ID/Info : UTF-8 Plain Text
Language : English
Default : No
Forced : No

Menu
00:00:00.000 : en:Chapter 01
00:11:23.000 : en:Chapter 02
00:21:23.000 : en:Chapter 03
00:30:07.000 : en:Chapter 04
00:41:41.000 : en:Chapter 05
00:56:42.000 : en:Chapter 06
01:08:02.000 : en:Chapter 07
01:19:35.000 : en:Chapter 08
01:34:31.000 : en:Chapter 09
01:43:01.000 : en:Chapter 10
Релиз от:

Автор релиза: pb.wtf



Скачать Белый клык 2: Легенда о белом волке через торрент http://i96.fastpic.ru/big/2017/0607/a3/8bda00c3358ab4f63b54427bcbbd72a3.png Скачать фильм Белый клык 2: Легенда о белом волке через торрент бесплантно в хорошем качестве Описание: На Диком Западе издавна существовала легенда о белом волке. Никто не мог разгадать этот миф. Но когда древнее индейское племя ... 1 10 1
Info! Золотая раздача, скачанное не засчитывается.
Торрент: Зарегистрирован [2018-03-03 06:51] · скачан: 64 раз
Статус: √ проверено
Размер: 2.56 GB
Как cкачать? Как скачать Белый клык 2: Легенда о белом волке через торрент | UTorrent

28-11-2019 20:33  

Отключить всю рекламу на сайте

    Дорогой пользователь! Огромная просьба, поблагодарите релизера, оцените раздачу и оставьте свои комментарий, если Вы скачали Белый клык 2: Легенда о белом волке через торрент бесплатно! Внесите свою лепту в развитие PiratBit!
    Комментировать посты могут только пользователи прошедшие не сложную регистрацию
    Показать сообщения:    

    Белый клык 2: Легенда о белом волке через торрент
    Скачать бесплатно Белый клык 2: Легенда о белом волке
    Белый клык 2: Легенда о белом волке скачать торрент
    Белый клык 2: Легенда о белом волке смотреть онлайн
    Cкачать фильм Белый клык 2: Легенда о белом волке бесплатно
    Белый клык 2: Легенда о белом волке скачать торрент в хорошем качестве
    Белый клык 2: Легенда о белом волке смотреть онлайн бесплатно в хорошем качестве


    Вы не можете начинать темы
    Вы не можете отвечать на сообщения
    Вы не можете редактировать свои сообщения
    Вы не можете удалять свои сообщения
    Вы не можете голосовать в опросах
    Вы не можете прикреплять файлы к сообщениям
    Вы можете скачивать файлы