Всегда рабочее зеркало без VPN и Proxy просто перед .vidak.icu напиши любое слово или цифру, Пример http://0khj.vidak.icu

Лицензия

MVO

1 сезон

1

1 сезон

iTunes

1 сезон

13

1 сезон

Deluxe

pack

Рекомендуем

Repack

30

ВАЖНО

RePack

MK11

RePack

jed

RePack

fifa19

RePack

RDR2

RePack

NEED FOR SPEED™ PAYBACK

Кинопоиск HD

6 сезон

 Острые козырьки 6 сезон

Все сериалы

все сериалы на PB.wtf

RePack

FAR CRY 5
  
Magnet ссылка

Лара Крофт: Расхитительница гробниц 2 - Колыбель жизни / Lara Croft Tomb Raider: The Cradle of Life (Ян де Бонт) [2003, фэнтези, боевик, приключения, UHD BD Remux 2160p] DUB+DVO+AVO+MVO+2xMVO (ukr) pb.wtf

Лара Крофт: Расхитительница гробниц 2 - Колыбель жизни через торрент pb.wtf

Раздают: 1 [ 0 KB/s ]
Размер: 50.72 GB | Добавлен: 4 года 5 мес. назад | Торрент скачан:83 раза
Смотреть онлайн Лара Крофт: Расхитительница гробниц 2 - Колыбель жизни | Скачать    Ребята, помогите собрать деньги на оплату серверов!!!

03-03-2018 09:06 Лара Крофт: Расхитительница гробниц 2 - Колыбель жизни Скачать торрент  

Лара Крофт: Расхитительница гробниц 2 - Колыбель жизни / Lara Croft Tomb Raider: The Cradle of Life
Год выпуска: 2003
Страна: США, Германия, Япония, Великобритания
Жанр: фэнтези, боевик, приключения
Продолжительность: 01:57:19
Перевод:

#1: Дубляж,
#2: профессиональный (двухголосый) - (Гланц и подруга)
#3: профессиональный (многоголосый) (русский) + украинский [ICTV, Новый канал]
#4: авторский (одноголосый) - Авторский (Живов)

Субтитры: русские (полные, 2 вида), английские (полные)

Режиссер: Ян де Бонт

rating

В ролях:

Анджелина Джоли, Джерард Батлер, Киаран Хиндс, Крис Барри, Ноа Тейлор, Джимон Хунсу, Тиль Швайгер, Саймон Ям, Теренс Йин, Даниэль Кальтаджироне

Описание:

Во второй серии приключений прекрасной расхитительницы гробниц Лары Крофт география действия становится ещё обширней и экзотичней. Ларе предстоит побывать в Греции, Кении, Танзании, Гонконге и Китае, и, разумеется, не для того, чтобы оценить местные красоты. Она будет противостоять злодею-интеллектуалу Чену Ло, возглавляющему китайский преступный синдикат. Ло, искусный бизнесмен и хладнокровный убийца, замыслил украсть мифический Ящик Пандоры из ушедшего под воду храма, чтобы использовать его как оружие Судного дня…

Качество: UHD BD Remux 2160p
Формат: MKV

Видео: HEVC, 69.0 Мбит/с, 3840x2160, 23.976 Кадр/с
Аудио#1: |RUS| AC-3, 48.0 kHz, 6 ch, 640 kb/s, CBR | Дублированный |
Аудио#2: |RUS| DTS, 48.0 kHz, 6 ch, 768 kb/s, CBR | Профессиональный двухголосый (Гланц и подруга)
Аудио#3: |RUS| AC-3, 48.0 kHz, 6 ch, 384 kb/s, CBR | Профессиональный многоголосый
Аудио#4: |RUS| AC-3, 48.0 kHz, 6 ch, 448 kb/s, CBR | Авторский (Живов)
Аудио#5: |UKR| AC-3, 48.0 kHz, 2 ch, 192 kb/s, CBR | MVO, ICTV |
Аудио#6: |UKR| AC-3, 48.0 kHz, 2 ch, 192 kb/s, CBR | MVO, Новый канал |
Аудио#7: |ENG| DTS MA / Core, 48.0 kHz, 6 ch, 2 218 kb/s / 1 509 kb/s, VBR / CBR | Original |
Аудио#8: |ENG| AC-3, 48.0 kHz, 6 ch, 640 kb/s, CBR | Audiodeion |
Аудио#9: |ENG| AC-3, 48.0 kHz, 2 ch, 224 kb/s, CBR | Commentary |
скриншот  скриншот  скриншот  скриншот  скриншот  скриншот  

Общее
Уникальный идентификатор : 293788459356255530955592211079763022060 (0xDD05995FDC35B986565B992DF99F50EC)
Полное имя : Lara.Croft.Tomb.Raider.The.Cradle.Of.Life.2003.2160p.BD.REMUX.HEVC.HDR.IVA(4xRUS.2xUKR.ENG).ExKinoRay.mkv
Формат : Matroska
Версия формата : Version 4 / Version 2
Размер файла : 50,7 Гбайт
Продолжительность : 1 ч. 57 м.
Общий поток : 61,9 Мбит/сек
Название фильма : Lara.Croft.Tomb.Raider.The.Cradle.Of.Life.2003.2160p.ExKinoRay
Дата кодирования : UTC 2018-03-02 21:58:57
Программа кодирования : mkvmerge v21.0.0 ('Tardigrades Will Inherit The Earth') 64-bit
Библиотека кодирования : libebml v1.3.5 + libmatroska v1.4.8
Обложка : Yes

Видео
Идентификатор : 1
Формат : HEVC
Формат/Информация : High Efficiency Video Coding
Профиль формата : Main [email protected]@High
Идентификатор кодека : V_MPEGH/ISO/HEVC
Продолжительность : 1 ч. 57 м.
Битрейт : 56,2 Мбит/сек
Ширина : 3840 пикселей
Высота : 2160 пикселей
Соотношение сторон : 16:9
Режим частоты кадров : Постоянный
Частота кадров : 23,976 (24000/1001) кадра/сек
Цветовое пространство : YUV
Субдискретизация насыщенности : 4:2:0 (Type 2)
Битовая глубина : 10 бит
Бит/(Пиксели*Кадры) : 0.282
Размер потока : 46,0 Гбайт (91%)
Заголовок : Lara.Croft.Tomb.Raider.The.Cradle.Of.Life.2003.2160p.BD.REMUX.HEVC.HDR
Язык : English
Default : Да
Forced : Нет
Цветовой диапазон : Limited
Основные цвета : BT.2020
Характеристики трансфера : PQ
Коэффициенты матрицы : BT.2020 non-constant
MasteringDisplay_ColorPrimaries : Display P3
MasteringDisplay_Luminance : min: 0.0001 cd/m2, max: 1000 cd/m2

Аудио #1
Идентификатор : 2
Формат : AC-3
Формат/Информация : Audio Coding 3
Идентификатор кодека : A_AC3
Продолжительность : 1 ч. 57 м.
Вид битрейта : Постоянный
Битрейт : 640 Кбит/сек
Каналы : 6 каналов
Расположение каналов : Front: L C R, Side: L R, LFE
Частота : 48,0 КГц
Частота кадров : 31,250 кадров/сек (1536 SPF)
Битовая глубина : 16 бит
Метод сжатия : С потерями
Размер потока : 537 Мбайт (1%)
Заголовок : | Дублированный |
Язык : Russian
ServiceKind/String : Complete Main
Default : Да
Forced : Нет

Аудио #2
Идентификатор : 3
Формат : DTS
Формат/Информация : Digital Theater Systems
Идентификатор кодека : A_DTS
Продолжительность : 1 ч. 57 м.
Вид битрейта : Постоянный
Битрейт : 768 Кбит/сек
Каналы : 6 каналов
Расположение каналов : Front: L C R, Side: L R, LFE
Частота : 48,0 КГц
Частота кадров : 93,750 кадра/сек (512 SPF)
Битовая глубина : 24 бит
Метод сжатия : С потерями
Размер потока : 645 Мбайт (1%)
Заголовок : | DVO |
Язык : Russian
Default : Нет
Forced : Нет

Аудио #3
Идентификатор : 4
Формат : AC-3
Формат/Информация : Audio Coding 3
Идентификатор кодека : A_AC3
Продолжительность : 1 ч. 57 м.
Вид битрейта : Постоянный
Битрейт : 384 Кбит/сек
Каналы : 6 каналов
Расположение каналов : Front: L C R, Side: L R, LFE
Частота : 48,0 КГц
Частота кадров : 31,250 кадров/сек (1536 SPF)
Битовая глубина : 16 бит
Метод сжатия : С потерями
Размер потока : 322 Мбайт (1%)
Заголовок : | MVO |
Язык : Russian
ServiceKind/String : Complete Main
Default : Нет
Forced : Нет

Аудио #4
Идентификатор : 5
Формат : AC-3
Формат/Информация : Audio Coding 3
Идентификатор кодека : A_AC3
Продолжительность : 1 ч. 57 м.
Вид битрейта : Постоянный
Битрейт : 448 Кбит/сек
Каналы : 6 каналов
Расположение каналов : Front: L C R, Side: L R, LFE
Частота : 48,0 КГц
Частота кадров : 31,250 кадров/сек (1536 SPF)
Битовая глубина : 16 бит
Метод сжатия : С потерями
Размер потока : 376 Мбайт (1%)
Заголовок : | VO, Живов |
Язык : Russian
ServiceKind/String : Complete Main
Default : Нет
Forced : Нет

Аудио #5
Идентификатор : 6
Формат : AC-3
Формат/Информация : Audio Coding 3
Идентификатор кодека : A_AC3
Продолжительность : 1 ч. 57 м.
Вид битрейта : Постоянный
Битрейт : 192 Кбит/сек
Каналы : 2 канала
Расположение каналов : Front: L R
Частота : 48,0 КГц
Частота кадров : 31,250 кадров/сек (1536 SPF)
Битовая глубина : 16 бит
Метод сжатия : С потерями
Размер потока : 161 Мбайт (0%)
Заголовок : | MVO, ICTV |
Язык : Ukrainian
ServiceKind/String : Complete Main
Default : Нет
Forced : Нет

Аудио #6
Идентификатор : 7
Формат : AC-3
Формат/Информация : Audio Coding 3
Идентификатор кодека : A_AC3
Продолжительность : 1 ч. 57 м.
Вид битрейта : Постоянный
Битрейт : 192 Кбит/сек
Каналы : 2 канала
Расположение каналов : Front: L R
Частота : 48,0 КГц
Частота кадров : 31,250 кадров/сек (1536 SPF)
Битовая глубина : 16 бит
Метод сжатия : С потерями
Размер потока : 161 Мбайт (0%)
Заголовок : | MVO, Новый канал |
Язык : Ukrainian
ServiceKind/String : Complete Main
Default : Нет
Forced : Нет

Аудио #7
Идентификатор : 8
Формат : DTS
Формат/Информация : Digital Theater Systems
Профиль формата : MA / Core
Идентификатор кодека : A_DTS
Продолжительность : 1 ч. 57 м.
Вид битрейта : Переменный / Постоянный
Битрейт : 2218 Кбит/сек / 1509 Кбит/сек
Каналы : 6 каналов
Расположение каналов : Front: L C R, Side: L R, LFE
Частота : 48,0 КГц
Частота кадров : 93,750 кадра/сек (512 SPF)
Битовая глубина : 24 бит
Метод сжатия : Без потерь / Lossy
Размер потока : 1,82 Гбайт (4%)
Заголовок : | Original |
Язык : English
Default : Нет
Forced : Нет

Аудио #8
Идентификатор : 9
Формат : AC-3
Формат/Информация : Audio Coding 3
Идентификатор кодека : A_AC3
Продолжительность : 1 ч. 57 м.
Вид битрейта : Постоянный
Битрейт : 640 Кбит/сек
Каналы : 6 каналов
Расположение каналов : Front: L C R, Side: L R, LFE
Частота : 48,0 КГц
Частота кадров : 31,250 кадров/сек (1536 SPF)
Битовая глубина : 16 бит
Метод сжатия : С потерями
Размер потока : 537 Мбайт (1%)
Заголовок : | Audiodescription |
Язык : English
ServiceKind/String : Complete Main
Default : Нет
Forced : Нет

Аудио #9
Идентификатор : 10
Формат : AC-3
Формат/Информация : Audio Coding 3
Идентификатор кодека : A_AC3
Продолжительность : 1 ч. 57 м.
Вид битрейта : Постоянный
Битрейт : 224 Кбит/сек
Каналы : 2 канала
Расположение каналов : Front: L R
Частота : 48,0 КГц
Частота кадров : 31,250 кадров/сек (1536 SPF)
Битовая глубина : 16 бит
Метод сжатия : С потерями
Размер потока : 188 Мбайт (0%)
Заголовок : | Commentary |
Язык : English
ServiceKind/String : Complete Main
Default : Нет
Forced : Нет

Текст #1
Идентификатор : 11
Формат : UTF-8
Идентификатор кодека : S_TEXT/UTF8
Идентификатор кодека/Информация : UTF-8 Plain Text
Продолжительность : 1 ч. 56 м.
Битрейт : 56 бит/сек
ElementCount : 827
Размер потока : 47,9 Кбайт (0%)
Заголовок : Full Blu-ray
Язык : Russian
Default : Нет
Forced : Нет

Текст #2
Идентификатор : 12
Формат : UTF-8
Идентификатор кодека : S_TEXT/UTF8
Идентификатор кодека/Информация : UTF-8 Plain Text
Продолжительность : 1 ч. 45 м.
Битрейт : 61 бит/сек
ElementCount : 975
Размер потока : 47,6 Кбайт (0%)
Заголовок : Full Custom
Язык : Russian
Default : Нет
Forced : Нет

Текст #3
Идентификатор : 13
Формат : UTF-8
Идентификатор кодека : S_TEXT/UTF8
Идентификатор кодека/Информация : UTF-8 Plain Text
Продолжительность : 1 ч. 44 м.
Битрейт : 36 бит/сек
ElementCount : 807
Размер потока : 28,2 Кбайт (0%)
Заголовок : Full
Язык : English
Default : Нет
Forced : Нет

Меню
00:00:00.000 : en:Chapter 1
00:03:06.895 : en:Chapter 2
00:06:43.194 : en:Chapter 3
00:11:17.760 : en:Chapter 4
00:16:55.139 : en:Chapter 5
00:20:41.240 : en:Chapter 6
00:24:15.787 : en:Chapter 7
00:27:44.079 : en:Chapter 8
00:31:54.412 : en:Chapter 9
00:34:42.872 : en:Chapter 10
00:37:15.149 : en:Chapter 11
00:42:39.265 : en:Chapter 12
00:47:59.710 : en:Chapter 13
00:51:12.277 : en:Chapter 14
00:56:10.533 : en:Chapter 15
01:00:09.647 : en:Chapter 16
01:06:28.985 : en:Chapter 17
01:10:03.199 : en:Chapter 18
01:14:33.969 : en:Chapter 19
01:19:35.353 : en:Chapter 20
01:24:03.288 : en:Chapter 21
01:28:51.159 : en:Chapter 22
01:35:15.167 : en:Chapter 23
01:40:19.763 : en:Chapter 24
01:45:33.076 : en:Chapter 25
01:47:46.251 : en:Chapter 26

pb.wtf



Скачать Лара Крофт: Расхитительница гробниц 2 - Колыбель жизни через торрент http://img12.lostpic.net/2018/03/03/b4f1828b821187d417e87c33b7cb83cb.jpg Скачать, смотреть онлайн Лара Крофт: Расхитительница гробниц 2 - Колыбель жизни бесплантно в хорошем качестве Описание: Во второй серии приключений прекрасной расхитительницы гробниц Лары Крофт география действия становится ещё обширней и ... 10 10 7
Торрент: Зарегистрирован [2018-03-03 09:06] · скачан: 83 раз
Статус: √ проверено
Размер: 50.72 GB
Как cкачать? Как скачать Лара Крофт: Расхитительница гробниц 2 - Колыбель жизни через торрент | UTorrent

% Раздел Тема Автор DL S | L
Ultra HD (UHD: 2K, 4K, 8K) — видео сверхвысокой чёткости [ 51.69 GB ] Лара Крофт: Расхитительница гробниц 2 – Колыбель жизни / Lara Croft Tomb Raider: The Cradle of Life [2003 UHD BDRemux 2160p] DUB [Dolby Vision] sheker187 Скачать
1 | 0
Фильмы (DVD фильмы) [ 4.26 GB ] Лара Крофт: Расхитительница гробниц 2 - Колыбель жизни / Lara Croft Tomb Raider: The Cradle of Life [2003 ... DVD5] amv77 Скачать
1 | 0
Фильмы 2001-2005 [ 2.18 GB ] Лара Крофт: Расхитительница гробниц 2 - Колыбель жизни / Lara Croft Tomb Raider: The Cradle of Life [2003 ... BDRip] chaga2009 Скачать
1 | 1

28-11-2019 20:33  

Отключить вcю реклaмy на сайте

    Дорогой пользователь! Огромная просьба, поблагодарите релизера, оцените раздачу и оставьте свои комментарий, если Вы скачали Лара Крофт: Расхитительница гробниц 2 - Колыбель жизни через торрент бесплатно!
    Комментировать посты могут только пользователи прошедшие не сложную регистрацию
    Показать сообщения:    

    Лара Крофт: Расхитительница гробниц 2 - Колыбель жизни через торрент
    Скачать бесплатно Лара Крофт: Расхитительница гробниц 2 - Колыбель жизни
    Лара Крофт: Расхитительница гробниц 2 - Колыбель жизни скачать торрент
    Лара Крофт: Расхитительница гробниц 2 - Колыбель жизни смотреть онлайн
    Cкачать фильм Лара Крофт: Расхитительница гробниц 2 - Колыбель жизни бесплатно
    Лара Крофт: Расхитительница гробниц 2 - Колыбель жизни скачать торрент в хорошем качестве
    Лара Крофт: Расхитительница гробниц 2 - Колыбель жизни смотреть онлайн бесплатно в хорошем качестве


    Вы не можете начинать темы
    Вы не можете отвечать на сообщения
    Вы не можете редактировать свои сообщения
    Вы не можете удалять свои сообщения
    Вы не можете голосовать в опросах
    Вы не можете прикреплять файлы к сообщениям
    Вы можете скачивать файлы