Ссылка на приватное зеркало нашего сайта всего за 1$. Внимание количество ограничено!!!

2 сезон

iTunes

1 сезон

1

iTunes

iTunes

iTunes

1 сезон

RePack

30

ИГРА 18+

pack

ВАЖНО

!!Акция!!

Alien_RageХит недели

RePack

MK11
pack

Забери бонус

RePack

jed

!!Акция!!

Alien_Rage

RePack

fifa19

RePack

Assassins Creed: Odyssey

RePack

NEED FOR SPEED™ PAYBACK

4 сезон

9 сезон

Бесстыжие 9 сезон

Все сериалы

все сериалы на PB.wtf

RePack

FAR CRY 5
  

Авария / Серии 1-4 из 4 (Владимир Койфман) [2018, Драма, SATRip] pb.wtf

Авария через торрент pb.wtf

Размер: 2.55 GB | Добавлен: 2 года 7 мес. назад | Торрент скачан:153 раза
Скачать  

03-03-2018 09:54 Авария Скачать торрент  

АварияГод выпуска: 2018
Страна: Россия
Жанр: Драма
Продолжительность: 00:45:00
Субтитры: отсутствуют

Режиссер: Владимир Койфман



В ролях:

Екатерина Решетникова, Денис Матросов, Анна Миклош, Сергей Перегудов, Екатерина Унтилова, Роман Грибков, Маргарита Аброськина, Вероника Норина, Антон Чернов, Виталий Олечкин

Описание:

Глава нефтяной компании Шумин вез сына Колю, получившего тяжелую травму головы, в больницу. Не желая терять время, мужчина выехал на встречную полосу и столкнулся с машиной Красновых. Краснов погиб на месте, а его беременная супруга Евгения выжила. После случившегося компания Шумина нанимает *специалиста по решению проблем* Лужина, который, подкупив свидетелей и удалив записи с камер, выставляет виновником аварии погибшего Краснова. Ему противостоит журналист Баксаров, пытающийся во что бы то ни стало добиться справедливости. Однако жизнь вносит свои коррективы. Очень скоро выясняется, что операцию, которая может спасти маленького Колю, может сделать только один хирург - та самая Евгения Краснова...

Качество: SATRip
Формат: AVI

Видео: XviD ~ 1800 Кбит/с, 720x400
Аудио#1: MP3, 2 ch, 128 Кбит/с
скриншот  скриншот  скриншот  

Общее
Полное имя : E:\Avarija.01.avi
Формат : AVI
Формат/Информация : Audio Video Interleave
Размер файла : 609 Мбайт
Продолжительность : 43 м. 53 с.
Общий поток : 1940 Кбит/сек
Библиотека кодирования : Boilsoft AVI tool build 30012/release

Видео
Идентификатор : 0
Формат : MPEG-4 Visual
Настройки формата : BVOP
Параметр BVOP формата : Да
Параметр QPel формата : Нет
Параметр GMC формата : Без точки перехода
Параметр матрицы формата : Default (H.263)
Идентификатор кодека : DX50
Идентификатор кодека/Подсказка : DivX 5
Продолжительность : 43 м. 53 с.
Битрейт : 1799 Кбит/сек
Ширина : 720 пикселей
Высота : 400 пикселей
Соотношение сторон : 16:9
Частота кадров : 25,000 кадров/сек
Цветовое пространство : YUV
Субдискретизация насыщенности : 4:2:0
Битовая глубина : 8 бит
Тип развёртки : Прогрессивная
Метод сжатия : С потерями
Бит/(Пиксели*Кадры) : 0.250
Размер потока : 565 Мбайт (93%)
Библиотека кодирования : Intel(R) MPEG-4 encoder based on Intel(R) IPP 6.1 build 137.20[6.1.137.763]

Аудио
Идентификатор : 1
Формат : MPEG Audio
Версия формата : Version 1
Профиль формата : Layer 3
Настройки формата : Joint stereo / MS Stereo
Идентификатор кодека : 55
Идентификатор кодека/Подсказка : MP3
Продолжительность : 43 м. 53 с.
Вид битрейта : Постоянный
Битрейт : 128 Кбит/сек
Каналы : 2 канала
Частота : 48,0 КГц
Метод сжатия : С потерями
Размер потока : 40,2 Мбайт (7%)
Выравнивание : Соединение по промежуткам
Продолжительность промежутка : 24 мс. (0,60 видеокадр)
Время предзагрузки промежутка : 504 мс.
Библиотека кодирования : LAME3.98.2

Когда раздача ведётся путём добавления новых серий, при каждом добавлении создётся новый торрент. Чтобы начать докачку новой серии, пользователям необходимо сделать следующее:
(1) остановить скачивание,
(2) удалить старый торрент у себя из клиента (старые серии удалять не надо),
(3) скачать новый торрент и запустить его у себя в клиенте вместо старого, при этом указать клиенту путь в старую папку, куда и должно происходить скачивание новых серий.
Ваш клиент при этом должен произвести хеширование (проверку) старой папки (если не производит сам - помогите ему сделать это), и будет докачивать только те серии, которых у вас ещё нет. Старые серии при этом не удаляются, а продолжают раздаваться!
Eсли вы уже удалили старые серии, то предотвратить повторную закачку старых серий можно, отжав галочку в соответсвующих местах при запуске нового торрента. По возможности, желательно не удалять старые серии как можно дольше, чтобы релизёр не столько продолжал раздавать старые серии, а смог сконцентрироваться на новых.
pb.wtf



Скачать Авария через торрент https://d.radikal.ru/d29/1803/35/86513d4630b5.jpg Скачать фильм Авария через торрент бесплантно в хорошем качестве Описание: Глава нефтяной компании Шумин вез сына Колю, получившего тяжелую травму головы, в больницу. Не желая терять время, мужчина выехал ... 10 10 9
Торрент: Зарегистрирован [2018-03-03 21:01] · скачан: 153 раз
Статус: √ проверено
Размер: 2.55 GB
Как cкачать? Как скачать Авария через торрент | qTorrent

% Раздел Тема Автор DL S | L
Наши сериалы [ 2.23 GB ] Авария / Серии: 1-4 из 4 [2017 SATRip-AVC] aleksan55 Скачать
1 | 0

28-11-2019 20:33  

Отключить всю рекламу на сайте

    Дорогой пользователь! Огромная просьба, поблагодарите релизера, оцените раздачу и оставьте свои комментарий, если Вы скачали Авария через торрент бесплатно! Внесите свою лепту в развитие PiratBit!
    Комментировать посты могут только пользователи прошедшие не сложную регистрацию
    Показать сообщения:    

    Авария через торрент
    Скачать бесплатно Авария
    Авария скачать торрент
    Авария смотреть онлайн
    Cкачать фильм Авария бесплатно
    Авария скачать торрент в хорошем качестве
    Авария смотреть онлайн бесплатно в хорошем качестве


    Вы не можете начинать темы
    Вы не можете отвечать на сообщения
    Вы не можете редактировать свои сообщения
    Вы не можете удалять свои сообщения
    Вы не можете голосовать в опросах
    Вы не можете прикреплять файлы к сообщениям
    Вы можете скачивать файлы