Всегда рабочее зеркало без VPN и Proxy просто перед .vidak.icu напиши любое слово или цифру, Пример http://gpu.vidak.icu

>

7.4

iTunes

7.4

2 сезон

6.6

iTunes

1

7.4

2 сезон

7.2

iTunes

6.0

MVO

13

6.1

iTunes

8.3

Пиратка

30

ULTIMATE

pack

9.9

Лицензия

ВАЖНО

ИГРА 18+

pack

7.3

RePack

MK11

7.7

RePack

jed

7.8

RePack

fifa19

8.5

RePack

RDR2

RePack

NEED FOR SPEED™ PAYBACK

1 сезон

9 сезон

Бесстыжие 9 сезон

Все сериалы

все сериалы на PB.wtf

RePack

FAR CRY 5

Anonymous, добрый день, мы катастрофически не успеваем собрать деньги на оплату серверов, помогите нам пожалуйста 5,10,15р., для нас важна любая помощь . В качестве благодарности мы отключим Вам всю рекламу на сайте (укажите свой ник в строку Ваше имя)!

×
  
Magnet ссылка

Дикие псы / Cani arrabbiati (Марио Бава) [1974, триллер, драма, криминал, BDRip 1080p by msltel] AVO pb.wtf

Дикие псы через торрент pb.wtf

Размер: 11.37 GB | Добавлен: 3 года 10 мес. назад | Торрент скачан:5 раз
Смотреть онлайн Дикие псы | Скачать    Ребята, помогите собрать деньги на оплату серверов!!!

03-03-2018 12:18 Дикие псы Скачать торрент  

Название: Дикие псы
Оригинальное название: Cani arrabbiati
Год выпуска: 1974
Страна: Италия
Жанр: триллер, драма, криминал
Продолжительность: 01:35:38
Перевод: авторский

Режиссер: Марио Бава
В ролях: Риккардо Куччолла, Дон Бэки, Лиа Ландер, Морис Поли, Джордж Истмен, Мария Фаббри, Эрика Дарио, Луиджи Антонио Гуэрра, Франческо Феррини, Эмилио Бонуччи

О фильме: Четверо преступников нападают на инкассатора, привезшего месячную зарплату в институт. Полиция убивает одного из нападавших, но троим удаётся захватить в заложницы двух девушек на подземной автостоянке. На требования полиции сложить оружие бандиты убивают одну девушку и обещают убить другую, если их не пропустят. Полиция идёт на уступки, в результате чего бандиты захватывают машину с водителем, требуя вывезти их из города. Ситуация осложняется тем, что в машине находится смертельно больной ребенок, которому требуется срочная операция...



Качество: BDRip 1080p
Формат: MKV
Видео: MPEG-4 AVC, 15.5 Mбит/с, 1920x1040, 23.976 кадр/с
Аудио 1: русский, DTS, 768 kbps, 6 ch [авторский, Андрей Дольский]
Аудио 2: итальянский, DTS, 768 kbps, 6 ch, 48 kHz [оригинал]
Субтитры: английские
Главы/чаптеры
Общее
Уникальный идентификатор : 174055813457718457488252200062951464732 (0x82F1EE29030312549663677774CD9F1C)
Полное имя : D:\Video\Дикие псы.1974.BDRip.1080p by msltel.mkv
Формат : Matroska
Версия формата : Version 4 / Version 2
Размер файла : 11,4 Гбайт
Продолжительность : 1 ч. 35 м.
Общий поток : 17,0 Мбит/сек
Название фильма : Rip by msltel
Дата кодирования : UTC 2018-03-03 02:26:18
Программа кодирования : mkvmerge v8.2.0 ('World of Adventure') 64bit
Библиотека кодирования : libebml v1.3.1 + libmatroska v1.4.2

Видео
Идентификатор : 1
Формат : AVC
Формат/Информация : Advanced Video Codec
Профиль формата : High@L4.1
Настройки формата : CABAC / 4 Ref Frames
Параметр CABAC формата : Да
Параметр RefFrames формата : 4 кадра
Идентификатор кодека : V_MPEG4/ISO/AVC
Продолжительность : 1 ч. 35 м.
Битрейт : 15,5 Мбит/сек
Ширина : 1920 пикселей
Высота : 1040 пикселей
Соотношение сторон : 1,85:1
Режим частоты кадров : Постоянный
Частота кадров : 23,976 (24000/1001) кадра/сек
Цветовое пространство : YUV
Субдискретизация насыщенности : 4:2:0
Битовая глубина : 8 бит
Тип развёртки : Прогрессивная
Бит/(Пиксели*Кадры) : 0.323
Размер потока : 10,3 Гбайт (91%)
Библиотека кодирования : x264 core 146 r2538 121396c
Настройки программы : cabac=1 / ref=4 / deblock=1:-3:-2 / analyse=0x3:0x113 / me=umh / subme=11 / psy=1 / psy_rd=1.00:0.15 / mixed_ref=1 / me_range=32 / chroma_me=1 / trellis=2 / 8x8dct=1 / cqm=0 / deadzone=21,11 / fast_pskip=0 / chroma_qp_offset=-3 / threads=6 / lookahead_threads=1 / sliced_threads=0 / nr=0 / decimate=1 / interlaced=0 / bluray_compat=0 / constrained_intra=0 / bframes=7 / b_pyramid=2 / b_adapt=2 / b_bias=0 / direct=1 / weightb=1 / open_gop=0 / weightp=2 / keyint=230 / keyint_min=23 / scenecut=40 / intra_refresh=0 / rc_lookahead=40 / rc=crf / mbtree=0 / crf=18.9 / qcomp=0.60 / qpmin=0 / qpmax=69 / qpstep=4 / vbv_maxrate=62500 / vbv_bufsize=78125 / crf_max=0.0 / nal_hrd=none / filler=0 / ip_ratio=1.40 / pb_ratio=1.30 / aq=1:1.00
Язык : Italian
Default : Да
Forced : Нет

Аудио #1
Идентификатор : 2
Формат : DTS
Формат/Информация : Digital Theater Systems
Идентификатор кодека : A_DTS
Продолжительность : 1 ч. 35 м.
Вид битрейта : Постоянный
Битрейт : 768 Кбит/сек
Каналы : 2 канала
Расположение каналов : Front: L R
Частота : 48,0 КГц
Частота кадров : 93,750 кадра/сек (512 SPF)
Битовая глубина : 24 бит
Метод сжатия : С потерями
Размер потока : 525 Мбайт (5%)
Заголовок : Андрей Дольский
Язык : Russian
Default : Да
Forced : Нет

Аудио #2
Идентификатор : 3
Формат : DTS
Формат/Информация : Digital Theater Systems
Идентификатор кодека : A_DTS
Продолжительность : 1 ч. 35 м.
Вид битрейта : Постоянный
Битрейт : 768 Кбит/сек
Каналы : 2 канала
Расположение каналов : Front: L R
Частота : 48,0 КГц
Частота кадров : 93,750 кадра/сек (512 SPF)
Битовая глубина : 24 бит
Метод сжатия : С потерями
Размер потока : 525 Мбайт (5%)
Заголовок : original
Язык : Italian
Default : Нет
Forced : Нет

Текст
Идентификатор : 4
Формат : UTF-8
Идентификатор кодека : S_TEXT/UTF8
Идентификатор кодека/Информация : UTF-8 Plain Text
Продолжительность : 1 ч. 30 м.
Битрейт : 50 бит/сек
ElementCount : 1013
Размер потока : 33,7 Кбайт (0%)
Заголовок : английские
Язык : English
Default : Нет
Forced : Нет

Меню
00:00:00.000 : :Chapter 01
00:10:55.905 : :Chapter 02
00:20:44.117 : :Chapter 03
00:29:27.431 : :Chapter 04
00:37:57.065 : :Chapter 05
00:50:05.627 : :Chapter 06
00:58:45.813 : :Chapter 07
01:09:27.037 : :Chapter 08
01:19:30.515 : :Chapter 09
01:26:12.250 : :Chapter 10
pb.wtf



Скачать Дикие псы через торрент https://c.radikal.ru/c31/1803/79/34fcaa9c2239.jpg Скачать, смотреть онлайн Дикие псы бесплантно в хорошем качестве О фильме: Четверо преступников нападают на инкассатора, привезшего месячную зарплату в институт. Полиция убивает одного из нападавших, но ... 10 10 2
Info! Золотая раздача, скачанное не засчитывается.
Торрент: Зарегистрирован [2018-03-03 12:18] · скачан: 5 раз
Статус: √ проверено
Размер: 11.37 GB
Как cкачать? Как скачать Дикие псы через торрент | UTorrent

% Раздел Тема Автор DL S | L
Фильмы с авторской озвучкой [ 4.15 GB ] Дикие псы / Cani arrabbiati [1974 BDRip 720p by msltel] AVO msltel Скачать
1 | 0

28-11-2019 20:33  

Отключить всю рекламу на сайте

    Дорогой пользователь! Огромная просьба, поблагодарите релизера, оцените раздачу и оставьте свои комментарий, если Вы скачали Дикие псы через торрент бесплатно!
    Комментировать посты могут только пользователи прошедшие не сложную регистрацию
    Показать сообщения:    

    Дикие псы через торрент
    Скачать бесплатно Дикие псы
    Дикие псы скачать торрент
    Дикие псы смотреть онлайн
    Cкачать фильм Дикие псы бесплатно
    Дикие псы скачать торрент в хорошем качестве
    Дикие псы смотреть онлайн бесплатно в хорошем качестве


    Вы не можете начинать темы
    Вы не можете отвечать на сообщения
    Вы не можете редактировать свои сообщения
    Вы не можете удалять свои сообщения
    Вы не можете голосовать в опросах
    Вы не можете прикреплять файлы к сообщениям
    Вы можете скачивать файлы