Ссылка на приватное зеркало нашего сайта всего за 1$. Внимание количество ограничено!!!

2 сезон

iTunes

1 сезон

1

2 сезон

2 сезон

iTunes

1 сезон

RePack

30

Ultimate

ВАЖНО

ИГРА 18+

pack

RePack

MK11
pack

Забери бонус

RePack

jed

!!Акция!!

Alien_Rage

RePack

fifa19

RePack

Assassins Creed: Odyssey

RePack

NEED FOR SPEED™ PAYBACK

4 сезон

9 сезон

Бесстыжие 9 сезон

Все сериалы

все сериалы на PB.wtf

RePack

FAR CRY 5
  

Викинги / Vikings / 4 сезон / 1-20 серии из 20 (Киаран Доннелли, Йохан Ренк, Кен Джиротти) [2016 г., боевик, драма, история, TVRip] MVO [SDI Media] pb.wtf

Викинги через торрент pb.wtf

Размер: 11.72 GB | Добавлен: 2 года 8 мес. назад | Торрент скачан:88 раз
Скачать  

22-01-2017 04:37 Викинги Скачать торрент  

Викинги / Vikings
Год выпуска: 2016
Страна: Ирландия, Канада
Жанр: боевик, драма, история
Всего серий: 20
Продолжительность: 20 x ~ 00:44:00
Перевод: Профессиональный (многоголосый) [SDI Media]
Субтитры: отсутствуют

Режиссер: Киаран Доннелли, Йохан Ренк, Кен Джиротти

rating

В ролях:

Трэвис Фиммел, Клайв Стэнден, Кэтрин Уинник, Гэбриел Бирн, Джессалин Гилсиг, Густаф Скарсгард, Джефферсон Холл, Джордж Благден, Тадж Мерфи, Диармэйд Мурта

Описание:

Отважный воин северного народа викингов Рагнар Лодброк, чей род, согласно древней легенде, происходит от самого бога войны Одина, решает отправиться в далекое плавание, чтобы завоевать новые территории. Построить корабль ему помогает Флоки, который хорошо разбирается в этом деле. Но во время отсутствия, Влacть в королевстве Катигат пытается захватить родной брат Рагнара Ролло. Его жестокость не знает границ. Однако, Рагнар возвращается. Ему предстоит бороться с предательством и подлостью, чтобы доказать, что именно он является истинным правителем Катигата. Вот только еще одним претендентом на трон становится женщина. Кому же удастся захватить Влacть?

Качество: TVRip
Формат: AVI
Видео кодек: XviD
Аудио кодек: AC3

Видео: 720x400 (1.80:1), 25 fps, XviD build 50, 1850 kbps avg, 0.26 bit/pixel
Аудио#1: 48 kHz, AC3 Dolby Digital, 2/0 (L,R) ch, 192 kbps
Общее
Полное имя : D:\Vikings.S04.SDI.Media\Vikings.4x01.A.Good.Treason.avi
Формат : AVI
Формат/Информация : Audio Video Interleave
Размер файла : 600 Мбайт
Продолжительность : 40 м. 52 с.
Общий поток : 2053 Кбит/сек
Программа кодирования : VirtualDubMod 1.5.10.2 (build 2540/release)
Библиотека кодирования : VirtualDubMod build 2540/release

Видео
Идентификатор : 0
Формат : MPEG-4 Visual
Профиль формата : Advanced Simple@L5
Параметр BVOP формата : 2
Параметр QPel формата : Нет
Параметр GMC формата : Без точки перехода
Параметр матрицы формата : Default (MPEG)
Идентификатор кодека : XVID
Идентификатор кодека/Подсказка : XviD
Продолжительность : 40 м. 52 с.
Битрейт : 1851 Кбит/сек
Ширина : 720 пикселей
Высота : 400 пикселей
Соотношение сторон : 16:9
Частота кадров : 25,000 кадров/сек
Цветовое пространство : YUV
Субдискретизация насыщенности : 4:2:0
Битовая глубина : 8 бит
Тип развёртки : Прогрессивная
Метод сжатия : С потерями
Бит/(Пиксели*Кадры) : 0.257
Размер потока : 541 Мбайт (90%)
Библиотека кодирования : XviD 1.2.1 (UTC 2008-12-04)

Аудио
Идентификатор : 1
Формат : AC-3
Формат/Информация : Audio Coding 3
Расширение режима : CM (complete main)
Параметр Endianness формата : Big
Идентификатор кодека : 2000
Продолжительность : 40 м. 52 с.
Вид битрейта : Постоянный
Битрейт : 192 Кбит/сек
Каналы : 2 канала
Расположение каналов : Front: L R
Частота : 48,0 КГц
Частота кадров : 31,250 кадров/сек (1536 spf)
Метод сжатия : С потерями
Размер потока : 56,1 Мбайт (9%)
Выравнивание : Разделение по промежуткам
Продолжительность промежутка : 40 мс. (1,00 видеокадр)
Время предзагрузки промежутка : 500 мс.
скриншот   скриншот   скриншот  
pb.wtf



Скачать Викинги через торрент http://s19.radikal.ru/i192/1701/a6/bb1148de90b2.jpg Скачать фильм Викинги через торрент бесплантно в хорошем качестве Описание: Отважный воин северного народа викингов Рагнар Лодброк, чей род, согласно древней легенде, происходит от самого бога войны Одина, ... 9.9 10 31
Торрент: Зарегистрирован [2018-03-03 19:43] · скачан: 88 раз
Статус: √ проверено
Размер: 11.72 GB
Как cкачать? Как скачать Викинги через торрент | qTorrent

% Раздел Тема Автор DL S | L
Зарубежные сериалы [ 36.29 GB ] Викинги / Vikings / Сезон: 4 / Серии: 1-20 из 20 [2016 военный история WEB-DL 1080p] MVO [AlexFilm] bober100 Скачать
2 | 0
Зарубежные сериалы [ 25.78 GB ] Викинги / Vikings / Сезон: 4 / Серии 1-18 из 20 [2016 военный история WEB-DL 720р] MVO AlexFilm diletant Скачать
1 | 0
Зарубежные сериалы [ 17.01 GB ] Викинги / Vikings / Сезон: 4 / Серии 1-20 из 20 [2016 Ирландия военный WEB-DLRip-AVC] MVO [NewStudio] GEKADOL Скачать
1 | 0
Зарубежные сериалы [ 9.83 GB ] Викинги / Vikings / Сезон: 4 / Серии 1-19 из 20 [2016 военный история WEB-DLRip] MVO AlexFilm diletant Скачать
1 | 0

28-11-2019 20:33  

Отключить всю рекламу на сайте

23-01-2017 18:44 Викинги Скачать торрент  

тв3 быстрее всех показал? )))pb.wtf



23-01-2017 21:26 Викинги Скачать торрент  

Кто-нибудь знает, что означает "ananizapata" на мече в конце?pb.wtf



24-01-2017 17:09 Викинги Скачать торрент  

Встаньте на раздачу, люди добре )pb.wtf



24-01-2017 18:09 Викинги Скачать торрент  

4poku писал(а):

Встаньте на раздачу, люди добре )

Сорок человек на раздачи смотри у себя проблемы.pb.wtf



    Дорогой пользователь! Огромная просьба, поблагодарите релизера, оцените раздачу и оставьте свои комментарий, если Вы скачали Викинги через торрент бесплатно! Внесите свою лепту в развитие PiratBit!
    Комментировать посты могут только пользователи прошедшие не сложную регистрацию
    Показать сообщения:    

    Викинги через торрент
    Скачать бесплатно Викинги
    Викинги скачать торрент
    Викинги смотреть онлайн
    Cкачать фильм Викинги бесплатно
    Викинги скачать торрент в хорошем качестве
    Викинги смотреть онлайн бесплатно в хорошем качестве


    Вы не можете начинать темы
    Вы не можете отвечать на сообщения
    Вы не можете редактировать свои сообщения
    Вы не можете удалять свои сообщения
    Вы не можете голосовать в опросах
    Вы не можете прикреплять файлы к сообщениям
    Вы можете скачивать файлы