Ссылка на приватное зеркало нашего сайта всего за 1$. Внимание количество ограничено!!!

2 сезон

iTunes

1 сезон

1

2 сезон

2 сезон

iTunes

1 сезон

RePack

30

Новинка

ВАЖНО

ИГРА 18+

pack

RePack

MK11
pack

Забери бонус

RePack

jed

!!Акция!!

Alien_Rage

RePack

fifa19

RePack

Assassins Creed: Odyssey

RePack

NEED FOR SPEED™ PAYBACK

4 сезон

9 сезон

Бесстыжие 9 сезон

Все сериалы

все сериалы на PB.wtf

RePack

FAR CRY 5
  

Заложница / Taken / Сезон: 2 / Серии 1-16 из 16 (Холли Дэйл / Holly Dale, Ромео Тироне / Romeo Tirone, Лекси Александр / Lexi Alexander) [2017 , США, Франция, боевик, триллер, WEBRip, WEB-DLRip] MVO [BaibaKo] pb.wtf

Заложница через торрент pb.wtf

Размер: 7.72 GB | Добавлен: 2 года 5 мес. назад | Торрент скачан:3 раза
Скачать  

04-03-2018 02:15 Заложница Скачать торрент  


Заложница / Taken



  • Год выпуска: 2017
  • Страна: США, Франция
  • Жанр: боевик, триллер
  • Продолжительность: ~ 00:45:00 (Серия)
  • Перевод: Профессиональный многоголосый [BaibaKo]
  • Режиссер: Холли Дэйл / Holly Dale, Ромео Тироне / Romeo Tirone, Лекси Александр / Lexi Alexander
  • В ролях:

    Клайв Стэнден (Bryan Mills), Джеймс Хеберт (REM), Симу Лью (Faaron), Дженнифер Марсала (Riley), Романо Орцари (Carlos Meija), Джанет Рэкуэл (Theresa Redcliffe), Дженнифер Билз (Christina Hart), Моник Кёрнен (Vlasik), Гай Чарльз (John), Майкл Ирби (Scott), Селеста Дежардинс (Cali Mills), Мэттью Беннетт (Gary Martello)


  • Это история молодого Брайана Миллса, бывшего «зеленого берета», пережившего трагедию, которая полностью изменила его. Справляясь с последствиями травмы, Миллс становится оперативником ЦРУ, и новая работа пробуждает в нем особенные и невероятно опасные таланты.
  • Рейтинг:

    rating
  • Качество: WEBRip, WEB-DLRip
  • Формат: :AVI
  • Видео кодек: XviD
  • Аудио кодек: MP3
  • Видео: 1389 Кбит/сек, 720*400 (16:9), в 23,976 (24000/1001) кадра/сек, MPEG-4 Visual (XviD)
  • Аудио №1: русский 192 Кбит/сек, 48,0 КГц, 2 канала, MPEG Audio (MP3) |[BaibaKo]|
  • Релиз от: GEKADOL

    Внимание! Раздача ведётся путём добавления новых серий; при каждом добавлении создаётся новый торрент. Чтобы начать докачку новой серии, пользователям необходимо сделать следующее:
    (1) остановить скачивание,
    (2) удалить старый торрент у себя из клиента (старые серии удалять не надо),
    (3) скачать новый торрент и запустить его у себя в клиенте вместо старого, при этом указать клиенту путь в старую папку куда и должно происходить скачивание новых серий.
    Ваш клиент при этом должен произвести хеширование (проверку) старой папки (если не производит сам - помогите ему сделать это), и будет докачивать только те серии которых у вас ещё нет. Старые серии при этом не удаляются, а продолжают раздаваться!
    Eсли вы уже удалили старые серии, то предотвратить повторную закачку старых серий можно, отжав галочку в соответствующих местах при запуске нового торрента. По возможности, желательно не удалять старые серии как можно дольше чтобы релизёр не столько продолжал раздавать старые серии, а смог сконцентрироваться на новых.
    Общее
    Полное имя : F:\Заложница (Taken 2) XviD\Taken.s02e05.WEB-DLRip.XviD.Rus.BaibaKo.avi
    Формат : AVI
    Формат/Информация : Audio Video Interleave
    Размер файла : 479 Мбайт
    Продолжительность : 42 м. 8 с.
    Общий поток : 1590 Кбит/сек

    Видео
    Идентификатор : 0
    Формат : MPEG-4 Visual
    Профиль формата : Advanced Simple@L5
    Настройки формата : BVOP2
    Параметр BVOP формата : 2
    Параметр QPel формата : Нет
    Параметр GMC формата : Без точки перехода
    Параметр матрицы формата : Default (H.263)
    Идентификатор кодека : XVID
    Идентификатор кодека/Подсказка : XviD
    Продолжительность : 42 м. 8 с.
    Битрейт : 1389 Кбит/сек
    Ширина : 720 пикселей
    Высота : 400 пикселей
    Соотношение сторон : 16:9
    Частота кадров : 23,976 (24000/1001) кадра/сек
    Цветовое пространство : YUV
    Субдискретизация насыщенности : 4:2:0
    Битовая глубина : 8 бит
    Тип развёртки : Прогрессивная
    Метод сжатия : С потерями
    Бит/(Пиксели*Кадры) : 0.201
    Размер потока : 419 Мбайт (87%)
    Библиотека кодирования : XviD 65

    Аудио
    Идентификатор : 1
    Формат : MPEG Audio
    Версия формата : Version 1
    Профиль формата : Layer 3
    Настройки формата : Joint stereo
    Идентификатор кодека : 55
    Идентификатор кодека/Подсказка : MP3
    Продолжительность : 42 м. 8 с.
    Вид битрейта : Постоянный
    Битрейт : 192 Кбит/сек
    Каналы : 2 канала
    Частота : 48,0 КГц
    Метод сжатия : С потерями
    Задержка видео : 17 мс.
    Размер потока : 57,9 Мбайт (12%)
    Выравнивание : Разделение по промежуткам
    Продолжительность промежутка : 42 мс. (1,00 видеокадр)
    Время предзагрузки промежутка : 500 мс.
    Библиотека кодирования : LAME3.99.5



    Скриншоты:
    скриншот   скриншот   скриншот   скриншот   скриншот   скриншот   скриншот  
    скриншот  

    Раздача ведётся путём добавления новых серий. Добавлена 16 серия (04.07.2018).Просьба перекачать торрент файл.

    pb.wtf



  • Скачать Заложница через торрент http://pic1.kartinco.top/images/11/2pqqt.jpg Скачать фильм Заложница через торрент бесплантно в хорошем качестве qw.png Это история молодого Брайана Миллса, бывшего «зеленого берета», пережившего трагедию, которая полностью изменила его. Справляясь с ... 7.7 10 3
    Info! Золотая раздача, скачанное не засчитывается.
    Торрент: Зарегистрирован [2018-07-04 11:51] · скачан: 3 раз
    Статус: √ проверено
    Размер: 7.72 GB
    Как cкачать? Как скачать Заложница через торрент | qTorrent

    % Раздел Тема Автор DL S | L
    Зарубежные сериалы [ 28.71 GB ] Заложница / Taken / Сезон: 2 / Серии: 1-16 из 16 [2018 WEB-DL 1080p] MVO [LostFilm] bober100 Скачать
    1 | 0
    Зарубежные сериалы [ 23 GB ] Заложница / Taken / Сезон: 2 / Серии: 1-16 из 16 [2018 WEB-DL 720p] MVO [NewStudio] bober100 Скачать
    1 | 0
    Зарубежные сериалы [ 8.6 GB ] Заложница / Taken / Сезон: 2 / Серии: 1-16 из 16 [2018 WEB-DLRip] MVO [NewStudio] bober100 Скачать
    1 | 0
    Зарубежные сериалы [ 24.23 GB ] Заложница / Taken / Сезон: 2 / Серии: 1-16 из 16 [2018 WEBRip 720p] MVO [Jaskier] bober100 Скачать
    1 | 0
    Зарубежные сериалы [ 25.09 GB ] Заложница / Taken / Сезон: 2 / Серии 1-16 из 16 [2017 WEBRip 720p WEB-DL 720p] MVO [BaibaKo] GEKADOL Скачать
    1 | 0
    Зарубежные сериалы [ 9.16 GB ] Заложница / Taken / Сезон: 2 / Серии: 1-16 из 16 [2018 WEBRip WEB-DLRip] MVO [BaibaKo] bober100 Скачать
    1 | 0
    Зарубежные сериалы [ 38.87 GB ] Заложница / Taken / Сезон: 2 / Серии: 1-16 из 16 [2018 WEBRip 1080p] MVO [Jaskier] bober100 Скачать
    1 | 0


    Последний раз редактировалось: GEKADOL (2018-07-04 11:51), всего редактировалось 13 раз(а)

    28-11-2019 20:33  

    Отключить всю рекламу на сайте

    04-03-2018 02:56 Заложница Скачать торрент  

    Не повтор!!!!!!

    pb.wtf



      Дорогой пользователь! Огромная просьба, поблагодарите релизера, оцените раздачу и оставьте свои комментарий, если Вы скачали Заложница через торрент бесплатно! Внесите свою лепту в развитие PiratBit!
      Комментировать посты могут только пользователи прошедшие не сложную регистрацию
      Показать сообщения:    

      Заложница через торрент
      Скачать бесплатно Заложница
      Заложница скачать торрент
      Заложница смотреть онлайн
      Cкачать фильм Заложница бесплатно
      Заложница скачать торрент в хорошем качестве
      Заложница смотреть онлайн бесплатно в хорошем качестве


      Вы не можете начинать темы
      Вы не можете отвечать на сообщения
      Вы не можете редактировать свои сообщения
      Вы не можете удалять свои сообщения
      Вы не можете голосовать в опросах
      Вы не можете прикреплять файлы к сообщениям
      Вы можете скачивать файлы