Ссылка на приватное зеркало нашего сайта всего за 1$. Внимание количество ограничено!!!

2 сезон

iTunes

1 сезон

1

iTunes

iTunes

iTunes

1 сезон

RePack

30

ИГРА 18+

pack

ВАЖНО

!!Акция!!

Alien_RageХит недели

RePack

MK11
pack

Забери бонус

RePack

jed

!!Акция!!

Alien_Rage

RePack

fifa19

RePack

Assassins Creed: Odyssey

RePack

NEED FOR SPEED™ PAYBACK

4 сезон

9 сезон

Бесстыжие 9 сезон

Все сериалы

все сериалы на PB.wtf

RePack

FAR CRY 5
  

Злоумышленница / 1-2 серии из 2 (Екатерина Двигубская) [2018 г., Мелодрама, WEB-DLRip] pb.wtf

Злоумышленница через торрент pb.wtf

Размер: 2.74 GB | Добавлен: 2 года 7 мес. назад | Торрент скачан:66 раз
Скачать  

04-03-2018 05:13 Злоумышленница Скачать торрент  

Злоумышленница / 1-2 серии из 2
Год выпуска: 2018
Страна: Россия
Жанр: Мелодрама
Продолжительность: 2 x ~ 01:30:00
Субтитры: нет

Режиссер: Екатерина Двигубская

В ролях: Марина Коняшкина, Алексей Анищенко, Руслан Чернецкий, Олег Ткачёв, Святослав Астрамович, Зоя Антонова

Описание: Сима одна воспитывает троих детей и работает уборщицей. Личной жизни у нее нет, всю себя она посвящает детям. Всегда неунывающая и жизнерадостная Серафима конфликтует только с одним человеком - соседом Борисом, который всегда ставит машину на детской площадке. У Бориса в жизни тяжелый период - он разводится с женой, а тут еще и соседка подливает масла в огонь. Вражда доходит до того, что Сима в порыве злости поджигает его машину. Машина уничтожена. Борис в ярости, требует денег за ущерб. Но денег у Симы нет. Ей грозит тюрьма, а ее детям - детдом.

Качество: WEB-DLRip
Формат: AVI
Видео кодек: XviD
Аудио кодек: AC3
Видео: XviD, ~ 1950 Кбит/с, 720x400
Аудио#1: AC3, 2 ch, 192 Кбит/с
General
Complete name : H:\релизы.торрентфайл\Злоумышленница.2018.WEB-DLRip.Files-x\01.Злоумышленница.2018.WEB-DLRip.Files-x.avi
Format : AVI
Format/Info : Audio Video Interleave
File size : 1.37 GiB
Duration : 1h 30mn
Overall bit rate : 2 159 Kbps
Writing application : VirtualDubMod 1.5.10.3 | www.virtualdub-fr.org || (build 2550/release)
Writing library : VirtualDubMod build 2550/release

Video
ID : 0
Format : MPEG-4 Visual
Format profile : Advanced Simple@L5
Format settings, BVOP : 1
Format settings, QPel : No
Format settings, GMC : No warppoints
Format settings, Matrix : Custom
Codec ID : XVID
Codec ID/Hint : XviD
Duration : 1h 30mn
Bit rate : 1 957 Kbps
Width : 720 pixels
Height : 400 pixels
Display aspect ratio : 16:9
Frame rate : 25.000 fps
Color space : YUV
Chroma subsampling : 4:2:0
Bit depth : 8 bits
Scan type : Progressive
Compression mode : Lossy
Bits/(Pixel*Frame) : 0.272
Stream size : 1.24 GiB (91%)
Writing library : XviD 73

Audio
ID : 1
Format : AC-3
Format/Info : Audio Coding 3
Mode extension : CM (complete main)
Format settings, Endianness : Big
Codec ID : 2000
Duration : 1h 30mn
Bit rate mode : Constant
Bit rate : 192 Kbps
Channel(s) : 2 channels
Channel positions : Front: L R
Sampling rate : 48.0 KHz
Bit depth : 16 bits
Compression mode : Lossy
Stream size : 125 MiB (9%)
Alignment : Split accross interleaves
Interleave, duration : 40 ms (1.00 video frame)
Interleave, preload duration : 500 ms

скриншот   скриншот   скриншот   скриншот  
pb.wtf



Скачать Злоумышленница через торрент http://i103.fastpic.ru/big/2018/0303/cc/05c0ac8850f0e44520df11dee73162cc.jpg Скачать фильм Злоумышленница через торрент бесплантно в хорошем качестве Описание: Сима одна воспитывает троих детей и работает уборщицей. Личной жизни у нее нет, всю себя она посвящает детям. Всегда неунывающая ... 10 10 4
Торрент: Зарегистрирован [2018-03-04 05:13] · скачан: 66 раз
Статус: √ проверено
Размер: 2.74 GB
Как cкачать? Как скачать Злоумышленница через торрент | qTorrent

28-11-2019 20:33  

Отключить всю рекламу на сайте

    Дорогой пользователь! Огромная просьба, поблагодарите релизера, оцените раздачу и оставьте свои комментарий, если Вы скачали Злоумышленница через торрент бесплатно! Внесите свою лепту в развитие PiratBit!
    Комментировать посты могут только пользователи прошедшие не сложную регистрацию
    Показать сообщения:    

    Злоумышленница через торрент
    Скачать бесплатно Злоумышленница
    Злоумышленница скачать торрент
    Злоумышленница смотреть онлайн
    Cкачать фильм Злоумышленница бесплатно
    Злоумышленница скачать торрент в хорошем качестве
    Злоумышленница смотреть онлайн бесплатно в хорошем качестве


    Вы не можете начинать темы
    Вы не можете отвечать на сообщения
    Вы не можете редактировать свои сообщения
    Вы не можете удалять свои сообщения
    Вы не можете голосовать в опросах
    Вы не можете прикреплять файлы к сообщениям
    Вы можете скачивать файлы