Мега распродажа FORZA HORIZON 4 ULTIMATE+ВСЕ DLC+ОНЛАЙН всего за 499р. 349 руб. (супер цена). Внимание количество ограничено!!!

iTunes

1+1

iTunes

мы

iTunes

1

1 сезон

Чернобыль

1 сезон

Ральф против интернета

Лицензия

ПШазам

8 сезон

Игра престолов

Лицензия

30
pack

ВАЖНО

!!Акция!!

Alien_RageХит недели

RePack

Resident Evil 21

ИГРА 18+

pack

RePack

Metro:Exodus

!!Акция!!

Alien_Rage

RePack

fifa19

RePack

Assassins Creed: Odyssey

RePack

NEED FOR SPEED™ PAYBACK

3 сезон

9 сезон

Бесстыжие 9 сезон

Все сериалы

все сериалы на PB.wtf

RePack

FAR CRY 5
Ребята, катастрофически не хватает 2730р. для оплаты серверов за ИЮНЬ (всвязи с блокировками трафик упал в 3 раза), 1-2р., выручайте.
  

Мальчик на дельфине / Boy on a Dolphin (Жан Негулеско) [1957 г, драма, мелодрама, приключения, BDRip] MVO pb.wtf

Мальчик на дельфине через торрент pb.wtf

Размер: 1.45 GB | Добавлен: 1 год 4 мес. назад | Торрент скачан:10 раз
Скачать  

04-03-2018 11:11 Мальчик на дельфине Скачать торрент  

Мальчик на дельфине / Boy on a Dolphin
Год выпуска: 1957
Страна: США
Жанр: драма, мелодрама, приключения
Продолжительность: 01:51:18
Перевод: Профессиональный (многоголосый)

Режиссер: Жан Негулеско

rating

В ролях: Софи Лорен, Алан Лэдд, Клифтон Уэбб, Алекс Минотис, Хорхе Мистраль, Лоуренс Нэйсмит, Пьеро Гиагнони, Гертруда Флинн, Джордж А. Купер, Чарльз Фоусет

Описание: Прекрасный греческий остров Гидра. Красавица Федра зарабатывает на жизнь добыванием губок с морского дна. Однажды, ныряя, девушка натыкается на затонувший корабль и обнаруживает древнюю золотую статую мальчика, сидящего верхом на бронзовом дельфине. Понимая, что ее находка может принести семье много денег, Федра отправляется в Афины. Там она знакомится с хитрым коллекционером Виктором Пармали и ученым Джимом Колдером. Оба горят желанием взглянуть на историческую ценность.

Качество: BDRip (Boy.on.a.Dolphin.1957.BluRay.1080p.NovaLan)
Формат: AVI
Видео: XviD, 1664 Кбит/с, 720х304, 23.976 кадр/с
Аудио: AC3, 2 ch, 192 Кбит/с
Релиз от: Koenig
скриншот   скриншот   скриншот   скриншот   скриншот  

Общее
Полное имя : Boy.on.a.Dolphin.1957.BDRip.avi
Формат : AVI
Формат/Информация : Audio Video Interleave
Размер файла : 1,45 Гбайт
Продолжительность : 1 ч. 51 м.
Общий поток : 1865 Кбит/сек
Программа кодирования : VirtualDubMod 1.5.10.2 (build 2540/release)
Библиотека кодирования : VirtualDubMod build 2540/release

Видео
Идентификатор : 0
Формат : MPEG-4 Visual
Профиль формата : Advanced Simple@L5
Параметр BVOP формата : 1
Параметр QPel формата : Нет
Параметр GMC формата : Без точки перехода
Параметр матрицы формата : Выборочная
Идентификатор кодека : XVID
Идентификатор кодека/Подсказка : XviD
Продолжительность : 1 ч. 51 м.
Битрейт : 1664 Кбит/сек
Ширина : 720 пикселей
Высота : 304 пикселя
Соотношение сторон : 2,35:1
Частота кадров : 23,976 (24000/1001) кадра/сек
Цветовое пространство : YUV
Субдискретизация насыщенности : 4:2:0
Битовая глубина : 8 бит
Тип развёртки : Прогрессивная
Метод сжатия : С потерями
Бит/(Пиксели*Кадры) : 0.317
Размер потока : 1,29 Гбайт (89%)
Библиотека кодирования : XviD 65

Аудио
Идентификатор : 1
Формат : AC-3
Формат/Информация : Audio Coding 3
Параметр Endianness формата : Big
Идентификатор кодека : 2000
Продолжительность : 1 ч. 51 м.
Вид битрейта : Постоянный
Битрейт : 192 Кбит/сек
Каналы : 2 канала
Расположение каналов : Front: L R
Частота : 48,0 КГц
Частота кадров : 31,250 кадров/сек (1536 spf)
Битовая глубина : 16 бит
Метод сжатия : С потерями
Размер потока : 153 Мбайт (10%)
Выравнивание : Разделение по промежуткам
Продолжительность промежутка : 42 мс. (1,00 видеокадр)
Время предзагрузки промежутка : 500 мс.
ServiceKind/String : Complete Main

pb.wtf



Скачать Мальчик на дельфине через торрент http://s018.radikal.ru/i527/1702/d5/0eec11c6add0.jpg Скачать фильм Мальчик на дельфине через торрент бесплантно в хорошем качестве Описание: Прекрасный греческий остров Гидра. Красавица Федра зарабатывает на жизнь добыванием губок с морского дна. Однажды, ныряя, девушка ... 1 10 1
Info! Серебряная раздача, засчитывается только 50% скачанного.
Торрент: Зарегистрирован [2018-03-04 11:11] · скачан: 10 раз
Статус: √ проверено
Размер: 1.45 GB
Как cкачать? Как скачать Мальчик на дельфине через торрент | qTorrent

% Раздел Тема Автор DL S | L
Фильмы [HD 720p, 1080p] (Хороший звук DUB, MVO) [ 12.93 GB ] Мальчик на дельфине / Boy on a Dolphin [1957 BDRip 1080p by msltel] MVO msltel Скачать
1 | 0
Фильмы [HD 720p, 1080p] (Хороший звук DUB, MVO) [ 3.79 GB ] Мальчик на дельфине / Boy on a Dolphin [1957 BDRip 720p by msltel] MVO msltel Скачать
1 | 0


>> Регистрируемся здесь <<






Отзывы и комментарии о схеме читаем и пишем здесь: ---> Отзывы и комментарии о схеме

Новые благодарочки в телеграм довольных пользователей:
скриншот   скриншот   скриншот   скриншот   скриншот
    Дорогой пользователь! Огромная просьба, поблагодарите релизера, оцените раздачу и оставьте свои комментарий, если Вы скачали Мальчик на дельфине через торрент бесплатно! Внесите свою лепту в развитие PiratBit!
    Комментировать посты могут только пользователи прошедшие не сложную регистрацию
    Показать сообщения:    

    Мальчик на дельфине через торрент
    Скачать бесплатно Мальчик на дельфине
    Мальчик на дельфине скачать торрент
    Мальчик на дельфине смотреть онлайн
    Cкачать фильм Мальчик на дельфине бесплатно
    Мальчик на дельфине скачать торрент в хорошем качестве
    Мальчик на дельфине смотреть онлайн бесплатно в хорошем качестве


    Вы не можете начинать темы
    Вы не можете отвечать на сообщения
    Вы не можете редактировать свои сообщения
    Вы не можете удалять свои сообщения
    Вы не можете голосовать в опросах
    Вы не можете прикреплять файлы к сообщениям
    Вы можете скачивать файлы