Ссылка на приватное зеркало нашего сайта всего за 1$. Внимание количество ограничено!!!

2 сезон

iTunes

1 сезон

1

2 сезон

2 сезон

iTunes

1 сезон

RePack

30

Ultimate

ВАЖНО

ИГРА 18+

pack

RePack

MK11
pack

Забери бонус

RePack

jed

!!Акция!!

Alien_Rage

RePack

fifa19

RePack

Assassins Creed: Odyssey

RePack

NEED FOR SPEED™ PAYBACK

4 сезон

9 сезон

Бесстыжие 9 сезон

Все сериалы

все сериалы на PB.wtf

RePack

FAR CRY 5
  

Beyond The Black - Collections (Japanese Editions, 2CD, 2015, 2016) - 2017/ FLAC/ image +.cue/ lossless/ Symphonic Power Metal pb.wtf

Beyond The Black - Collections через торрент pb.wtf

Размер: 1.14 GB | Добавлен: 2 года 8 мес. назад | Торрент скачан:12 раз
Скачать  

04-03-2018 13:15 Beyond The Black - Collections Скачать торрент  


Beyond The Black - Collections (Japanese Editions, 2CD, 2015, 2016)


Год выпуска: 2015, 2016
Год издания: Reissued 2017
Страна: Germany (Mannheim, Baden-Württemberg)
Жанр: Symphonic Power Metal
Продолжительность: 02:18:58
Лейбл издания: Avalon/Marquee Inc.
Страна-выпуска диска: Japan
Номер по каталогу: MICP-11373, MICP-11332
Формат: FLAC
Битрейт аудио: Lossless
Тип рипа: image +.cue
Наличие сканов в содержимом раздачи: да


01. In The Shadows (4:54)
02. Songs Of Love And Death (4:18)
03. Unbroken (4:29)
04. When Angels Fall (5:24)
05. Pearl In A World Of Dirt (6:27)
06. Hallelujah (5:22)
07. Running To The Edge (4:57)
08. Numb (4:28)
09. Drowning In Darkness (4:14)
10. Afraid Of The Dark (4:09)
11. Fall Into The Flames (3:44)
12. Love Me Forever (Motorhead Cover) (3:29)
13. In The Shadows (Live) (Bonus Track) (5:15)

01. Lost in Forever (4:49)
02. Beyond the Black feat. Rick Altzi of Masterplan - Beautiful Lies (4:10)
03. Written in Blood (4:21)
04. Against the World (4:06)
05. Beyond the Mirror (4:15)
06. Halo of the Dark (4:22)
07. Dies irae (4:02)
08. Forget My Name (6:05)
09. Burning in Flames (4:15)
10. Nevermore (4:19)
11. Shine and Shade (6:14)
12. Heaven in Hell (4:28)
13. Love’s a Burden (3:44)
14. Night Will Fade (Bonus Track) (4:25)
15. Dim the Spotlight (Bonus Track) (4:27)
16. Our Little Time (Bonus Track) (4:12)
17. Rage Before the Storm (Bonus Track) (5:35)

Код:

Exact Audio Copy V1.3 from 2. September 2016

EAC extraction logfile from 25. September 2017, 18:44

Beyond The Black / Songs Of Love And Death (Japan 2017)

Used drive  : MATSHITADVD-RAM UJ8G6   Adapter: 1  ID: 0

Read mode               : Secure
Utilize accurate stream : Yes
Defeat audio cache      : Yes
Make use of C2 pointers : No

Read offset correction                      : 103
Overread into Lead-In and Lead-Out          : No
Fill up missing offset samples with silence : Yes
Delete leading and trailing silent blocks   : No
Null samples used in CRC calculations       : Yes
Used interface                              : Native Win32 interface for Win NT & 2000

Used output format              : User Defined Encoder
Selected bitrate                : 1024 kBit/s
Quality                         : High
Add ID3 tag                     : No
Command line compressor         : C:\Program Files (x86)\Exact Audio Copy\FLAC\FLAC.EXE
Additional command line options : -V -8 -T "Date=%year%" -T"Genre=%genre%" -T"COMMENT=Ripped by Ilijan - ilko" -8 -V %source%

TOC of the extracted CD

     Track |   Start  |  Length  | Start sector | End sector
    ---------------------------------------------------------
        1  |  0:00.00 |  4:54.23 |         0    |    22072
        2  |  4:54.23 |  4:17.43 |     22073    |    41390
        3  |  9:11.66 |  4:29.05 |     41391    |    61570
        4  | 13:40.71 |  5:23.72 |     61571    |    85867
        5  | 19:04.68 |  6:26.62 |     85868    |   114879
        6  | 25:31.55 |  5:22.33 |    114880    |   139062
        7  | 30:54.13 |  4:57.01 |    139063    |   161338
        8  | 35:51.14 |  4:27.64 |    161339    |   181427
        9  | 40:19.03 |  4:13.64 |    181428    |   200466
       10  | 44:32.67 |  4:09.32 |    200467    |   219173
       11  | 48:42.24 |  3:43.45 |    219174    |   235943
       12  | 52:25.69 |  3:29.37 |    235944    |   251655
       13  | 55:55.31 |  5:14.42 |    251656    |   275247

Range status and errors

Selected range

     Filename D:\ilko\Beyond The Black - Songs Of Love And Death (Japan 2017).wav

     Peak level 98.8 %
     Extraction speed 4.1 X
     Range quality 100.0 %
     Test CRC C9F31F32
     Copy CRC C9F31F32
     Copy OK

No errors occurred

AccurateRip summary

Track  1  not present in database
Track  2  not present in database
Track  3  not present in database
Track  4  not present in database
Track  5  not present in database
Track  6  not present in database
Track  7  not present in database
Track  8  not present in database
Track  9  not present in database
Track 10  not present in database
Track 11  not present in database
Track 12  not present in database
Track 13  not present in database

None of the tracks are present in the AccurateRip database

End of status report

Код:

Exact Audio Copy V1.3 from 2. September 2016

EAC extraction logfile from 25. September 2017, 11:20

Beyond the Black / Lost in Forever (Japan 2017)

Used drive  : MATSHITADVD-RAM UJ8G6   Adapter: 1  ID: 0

Read mode               : Secure
Utilize accurate stream : Yes
Defeat audio cache      : Yes
Make use of C2 pointers : No

Read offset correction                      : 103
Overread into Lead-In and Lead-Out          : No
Fill up missing offset samples with silence : Yes
Delete leading and trailing silent blocks   : No
Null samples used in CRC calculations       : Yes
Used interface                              : Native Win32 interface for Win NT & 2000

Used output format              : User Defined Encoder
Selected bitrate                : 1024 kBit/s
Quality                         : High
Add ID3 tag                     : No
Command line compressor         : C:\Program Files (x86)\Exact Audio Copy\FLAC\FLAC.EXE
Additional command line options : -V -8 -T "Date=%year%" -T"Genre=%genre%" -T"COMMENT=Ripped by Ilijan - ilko" -8 -V %source%

TOC of the extracted CD

     Track |   Start  |  Length  | Start sector | End sector
    ---------------------------------------------------------
        1  |  0:00.00 |  4:48.47 |         0    |    21646
        2  |  4:48.47 |  4:09.55 |     21647    |    40376
        3  |  8:58.27 |  4:21.12 |     40377    |    59963
        4  | 13:19.39 |  4:06.14 |     59964    |    78427
        5  | 17:25.53 |  4:15.05 |     78428    |    97557
        6  | 21:40.58 |  4:21.38 |     97558    |   117170
        7  | 26:02.21 |  4:02.14 |    117171    |   135334
        8  | 30:04.35 |  6:05.01 |    135335    |   162710
        9  | 36:09.36 |  4:15.14 |    162711    |   181849
       10  | 40:24.50 |  4:19.03 |    181850    |   201277
       11  | 44:43.53 |  6:14.19 |    201278    |   229346
       12  | 50:57.72 |  4:27.55 |    229347    |   249426
       13  | 55:25.52 |  3:44.01 |    249427    |   266227
       14  | 59:09.53 |  4:24.43 |    266228    |   286070
       15  | 63:34.21 |  4:27.04 |    286071    |   306099
       16  | 68:01.25 |  4:12.33 |    306100    |   325032
       17  | 72:13.58 |  5:34.42 |    325033    |   350124

Range status and errors

Selected range

     Filename D:\ilko\Beyond the Black - Lost in Forever (Japan 2017).wav

     Peak level 98.7 %
     Extraction speed 4.5 X
     Range quality 100.0 %
     Test CRC 2255A131
     Copy CRC 2255A131
     Copy OK

No errors occurred

AccurateRip summary

Track  1  cannot be verified as accurate (confidence 2)  [1EE27CD4], AccurateRip returned [00E52484]  (AR v2)
Track  2  cannot be verified as accurate (confidence 2)  [A6957294], AccurateRip returned [4908C0D0]  (AR v2)
Track  3  cannot be verified as accurate (confidence 2)  [0AE188C7], AccurateRip returned [7C62A84C]  (AR v2)
Track  4  cannot be verified as accurate (confidence 2)  [8476F9A5], AccurateRip returned [1C134325]  (AR v2)
Track  5  cannot be verified as accurate (confidence 2)  [32BB6E5A], AccurateRip returned [479E21E4]  (AR v2)
Track  6  cannot be verified as accurate (confidence 2)  [5BB81B8B], AccurateRip returned [8A28E854]  (AR v2)
Track  7  cannot be verified as accurate (confidence 2)  [909902E3], AccurateRip returned [94CAF63E]  (AR v2)
Track  8  cannot be verified as accurate (confidence 2)  [8037E2D2], AccurateRip returned [DA49B1C5]  (AR v2)
Track  9  cannot be verified as accurate (confidence 2)  [7339F5AD], AccurateRip returned [3DEF7983]  (AR v2)
Track 10  cannot be verified as accurate (confidence 2)  [E65AA7C4], AccurateRip returned [FEE6E29F]  (AR v2)
Track 11  cannot be verified as accurate (confidence 2)  [75570A7E], AccurateRip returned [87AD72D4]  (AR v2)
Track 12  cannot be verified as accurate (confidence 2)  [21E5A92B], AccurateRip returned [93153F3C]  (AR v2)
Track 13  cannot be verified as accurate (confidence 2)  [DF436E45], AccurateRip returned [8524ED64]  (AR v2)
Track 14  cannot be verified as accurate (confidence 2)  [07C7087E], AccurateRip returned [18CBCF69]  (AR v2)
Track 15  cannot be verified as accurate (confidence 2)  [9992382F], AccurateRip returned [B300F51A]  (AR v2)
Track 16  cannot be verified as accurate (confidence 2)  [4EB269A0], AccurateRip returned [E9960C82]  (AR v2)
Track 17  cannot be verified as accurate (confidence 2)  [0FD586AC], AccurateRip returned [1FE39D0C]  (AR v2)

No tracks could be verified as accurate
You may have a different pressing from the one(s) in the database

End of status report

Код:

REM GENRE "Symphonic Metal"
REM DATE 2015
REM DISCID B10E550D
REM COMMENT "ExactAudioCopy v1.3"
PERFORMER "Beyond The Black"
TITLE "Songs Of Love And Death (Japan 2017)"
FILE "Beyond The Black - Songs Of Love And Death (Japan 2017).flac" WAVE
  TRACK 01 AUDIO
    TITLE "In The Shadows"
    PERFORMER "Beyond The Black"
    INDEX 01 00:00:00
  TRACK 02 AUDIO
    TITLE "Songs Of Love And Death"
    PERFORMER "Beyond The Black"
    INDEX 01 04:54:23
  TRACK 03 AUDIO
    TITLE "Unbroken"
    PERFORMER "Beyond The Black"
    INDEX 01 09:11:66
  TRACK 04 AUDIO
    TITLE "When Angels Fall"
    PERFORMER "Beyond The Black"
    INDEX 01 13:40:71
  TRACK 05 AUDIO
    TITLE "Pearl In A World Of Dirt"
    PERFORMER "Beyond The Black"
    INDEX 01 19:04:68
  TRACK 06 AUDIO
    TITLE "Hallelujah"
    PERFORMER "Beyond The Black"
    INDEX 01 25:31:55
  TRACK 07 AUDIO
    TITLE "Running To The Edge"
    PERFORMER "Beyond The Black"
    INDEX 01 30:54:13
  TRACK 08 AUDIO
    TITLE "Numb"
    PERFORMER "Beyond The Black"
    INDEX 01 35:51:14
  TRACK 09 AUDIO
    TITLE "Drowning In Darkness"
    PERFORMER "Beyond The Black"
    INDEX 01 40:19:03
  TRACK 10 AUDIO
    TITLE "Afraid Of The Dark"
    PERFORMER "Beyond The Black"
    INDEX 01 44:32:67
  TRACK 11 AUDIO
    TITLE "Fall Into The Flames"
    PERFORMER "Beyond The Black"
    INDEX 01 48:42:24
  TRACK 12 AUDIO
    TITLE "Love Me Forever (Motorhead Cover)"
    PERFORMER "Beyond The Black"
    INDEX 01 52:25:69
  TRACK 13 AUDIO
    TITLE "In The Shadows (Live) (Bonus Track)"
    PERFORMER "Beyond The Black"
    INDEX 00 55:53:31
    INDEX 01 55:55:31

Код:

REM GENRE "Symphonic Metal"
REM DATE 2016
REM DISCID DC123C11
REM COMMENT "ExactAudioCopy v1.3"
PERFORMER "Beyond the Black"
TITLE "Lost in Forever (Japan 2017)"
FILE "Beyond the Black - Lost in Forever (Japan 2017).flac" WAVE
  TRACK 01 AUDIO
    TITLE "Lost in Forever"
    PERFORMER "Beyond the Black"
    INDEX 01 00:00:00
  TRACK 02 AUDIO
    TITLE "Beautiful Lies"
    PERFORMER "Beyond the Black feat. Rick Altzi of Masterplan"
    INDEX 01 04:48:47
  TRACK 03 AUDIO
    TITLE "Written in Blood"
    PERFORMER "Beyond the Black"
    INDEX 01 08:58:27
  TRACK 04 AUDIO
    TITLE "Against the World"
    PERFORMER "Beyond the Black"
    INDEX 01 13:19:39
  TRACK 05 AUDIO
    TITLE "Beyond the Mirror"
    PERFORMER "Beyond the Black"
    INDEX 01 17:25:53
  TRACK 06 AUDIO
    TITLE "Halo of the Dark"
    PERFORMER "Beyond the Black"
    INDEX 01 21:40:58
  TRACK 07 AUDIO
    TITLE "Dies irae"
    PERFORMER "Beyond the Black"
    INDEX 01 26:02:21
  TRACK 08 AUDIO
    TITLE "Forget My Name"
    PERFORMER "Beyond the Black"
    INDEX 01 30:04:35
  TRACK 09 AUDIO
    TITLE "Burning in Flames"
    PERFORMER "Beyond the Black"
    INDEX 01 36:09:36
  TRACK 10 AUDIO
    TITLE "Nevermore"
    PERFORMER "Beyond the Black"
    INDEX 01 40:24:50
  TRACK 11 AUDIO
    TITLE "Shine and Shade"
    PERFORMER "Beyond the Black"
    INDEX 01 44:43:53
  TRACK 12 AUDIO
    TITLE "Heaven in Hell"
    PERFORMER "Beyond the Black"
    INDEX 01 50:57:72
  TRACK 13 AUDIO
    TITLE "Love’s a Burden"
    PERFORMER "Beyond the Black"
    INDEX 01 55:25:52
  TRACK 14 AUDIO
    TITLE "Night Will Fade (Bonus Track)"
    PERFORMER "Beyond the Black"
    INDEX 00 59:07:53
    INDEX 01 59:09:53
  TRACK 15 AUDIO
    TITLE "Dim the Spotlight (Bonus Track)"
    PERFORMER "Beyond the Black"
    INDEX 00 63:32:21
    INDEX 01 63:34:21
  TRACK 16 AUDIO
    TITLE "Our Little Time (Bonus Track)"
    PERFORMER "Beyond the Black"
    INDEX 00 67:59:25
    INDEX 01 68:01:25
  TRACK 17 AUDIO
    TITLE "Rage Before the Storm (Bonus Track)"
    PERFORMER "Beyond the Black"
    INDEX 00 72:11:58
    INDEX 01 72:13:58





pb.wtf



Скачать Beyond The Black - Collections через торрент http://i100.fastpic.ru/big/2018/0303/04/9ec1e3ed813a991023d725b3cfc39204.png Скачать фильм Beyond The Black - Collections через торрент бесплантно в хорошем качестве ... 10 10 1
Info! Серебряная раздача, засчитывается только 50% скачанного.
Торрент: Зарегистрирован [2018-03-04 13:15] · скачан: 12 раз
Статус: √ проверено
Размер: 1.14 GB
Как cкачать? Как скачать Beyond The Black - Collections через торрент | qTorrent

28-11-2019 20:33  

Отключить всю рекламу на сайте

    Дорогой пользователь! Огромная просьба, поблагодарите релизера, оцените раздачу и оставьте свои комментарий, если Вы скачали Beyond The Black - Collections через торрент бесплатно! Внесите свою лепту в развитие PiratBit!
    Комментировать посты могут только пользователи прошедшие не сложную регистрацию
    Показать сообщения:    

    Beyond The Black - Collections через торрент
    Скачать бесплатно Beyond The Black - Collections
    Beyond The Black - Collections скачать торрент
    Beyond The Black - Collections смотреть онлайн
    Cкачать фильм Beyond The Black - Collections бесплатно
    Beyond The Black - Collections скачать торрент в хорошем качестве
    Beyond The Black - Collections смотреть онлайн бесплатно в хорошем качестве


    Вы не можете начинать темы
    Вы не можете отвечать на сообщения
    Вы не можете редактировать свои сообщения
    Вы не можете удалять свои сообщения
    Вы не можете голосовать в опросах
    Вы не можете прикреплять файлы к сообщениям
    Вы можете скачивать файлы