Ссылка на приватное зеркало всего за 1$. Внимание количество ограничено!!!

OK

1+1

iTunes

мы

OK

1

WEB-DLRip

Джокер

Пифагор

Ведьмак / The Witcher сериал

iTunes

ПШазам

ОК

Оно 2

iTunes

30
pack

Вам бонус

ВАЖНО

!!Акция!!

Alien_RageХит недели

RePack

Resident Evil 21

ИГРА 18+

pack

RePack

jed

RePack

fifa19

RePack

Assassins Creed: Odyssey

RePack

NEED FOR SPEED™ PAYBACK

4 сезон

9 сезон

Бесстыжие 9 сезон

Все сериалы

все сериалы на PB.wtf

RePack

FAR CRY 5
  

7 хранителей гробницы / 7 Guardians of the Tomb (Кимбл Рендалл) [2018 г., боевик, приключения, ужасы, WEB-DLRip] DUB [Чистый звук] pb.wtf

7 хранителей гробницы через торрент pb.wtf

Размер: 1.37 GB | Добавлен: 1 год 10 мес. назад | Торрент скачан:348 раз
Скачать  

05-03-2018 03:28 7 хранителей гробницы Скачать торрент  

7 хранителей гробницы / 7 Guardians of the Tomb Год выпуска: 2018
Страна: Китай, Австралия, Россия, Таиланд
Производство: Nest Holdings, Sleeping Otters Productions
Жанр: Боевик, приключения, ужасы
Продолжительность: 01:32:29

Режиссёр: Кимбл Рендалл
В ролях: Бинбин Ли, Келлан Латс, У Чунь, Келси Грэммер, Стэф Доусон, Ясмин Кассим, Тим Драксл, Шэйн Джейкобсон, Райан Джонсон, Джейсон Чонг

Перевод: Профессиональный (полное дублирование) [Чистый звук]
Субтитры: Отсутствуют

Описание: Команда археологов отправляется в древние подземелья, чтобы найти потерянного товарища, но находит вместо него колонию разумных пауков-людоедов.



Доп. информация: Релиз с рекламой!

Формат: AVI
Качество: WEB-DLRip

Видео кодек: XviD
Аудио кодек: AС3
Видео: 720x304 (2.35:1), 23.976 fps, XviD ~ 1719 kbps avg, 0.328 bit/pixel
Аудио: AC3, 48 kHz, 2 ch, ~ 384.00 kbps avg


Дата премьеры (мир): 19 января 2018
General
Complete name : F:\Готовые торренты\Guardians.of.the.Tomb.2018.D.WEB-DLRip.14OOMB_KOSHARA.avi
Format : AVI
Format/Info : Audio Video Interleave
File size : 1.37 GiB
Duration : 1h 32mn
Overall bit rate : 2 112 Kbps
Writing application : VirtualDubMod 1.5.10.2 (build 2540/release)
Writing library : VirtualDubMod build 2540/release

Video
ID : 0
Format : MPEG-4 Visual
Format profile : Advanced Simple@L5
Format settings, BVOP : 2
Format settings, QPel : No
Format settings, GMC : No warppoints
Format settings, Matrix : Custom
Codec ID : XVID
Codec ID/Hint : XviD
Duration : 1h 32mn
Bit rate : 1 719 Kbps
Width : 720 pixels
Height : 304 pixels
Display aspect ratio : 2.35:1
Frame rate : 23.976 (24000/1001) fps
Color space : YUV
Chroma subsampling : 4:2:0
Bit depth : 8 bits
Scan type : Progressive
Compression mode : Lossy
Bits/(Pixel*Frame) : 0.328
Stream size : 1.11 GiB (81%)
Writing library : XviD 1.2.1 (UTC 2008-12-04)

Audio
ID : 1
Format : AC-3
Format/Info : Audio Coding 3
Mode extension : CM (complete main)
Format settings, Endianness : Big
Codec ID : 2000
Duration : 1h 32mn
Bit rate mode : Constant
Bit rate : 384 Kbps
Channel(s) : 2 channels
Channel positions : Front: L R
Sampling rate : 48.0 KHz
Frame rate : 31.250 fps (1536 spf)
Compression mode : Lossy
Stream size : 254 MiB (18%)
Alignment : Split accross interleaves
Interleave, duration : 42 ms (1.00 video frame)
Interleave, preload duration : 500 ms
скриншот  скриншот  скриншот  
pb.wtf



Скачать 7 хранителей гробницы через торрент http://i102.fastpic.ru/big/2018/0305/26/f5cf5b0888e5bb26c733b14e3f967e26.jpg Скачать фильм 7 хранителей гробницы через торрент бесплантно в хорошем качестве Описание: Команда археологов отправляется в древние подземелья, чтобы найти потерянного товарища, но находит вместо него колонию разумных ... 9.8 10 8
Торрент: Зарегистрирован [2018-03-05 03:28] · скачан: 348 раз
Статус: T временная
Размер: 1.37 GB
Как cкачать? Как скачать 7 хранителей гробницы через торрент | qTorrent

% Раздел Тема Автор DL S | L
T Фильмы (мультфильмы) cо спонсором показа (Новинки AVI/MKV) [ 3.46 GB ] 7 хранителей гробницы / 7 Guardians of the Tomb [2018 WEB-DL 1080p] DUB [Line] bober100 Скачать
1 | 0
T Фильмы (мультфильмы) cо спонсором показа (Новинки AVI/MKV) [ 3.21 GB ] 7 хранителей гробницы / 7 Guardians of the Tomb [2018 WEB-DL 720p] DUB [Line] bober100 Скачать
1 | 0
T Фильмы (мультфильмы) cо спонсором показа (Новинки AVI/MKV) [ 3.33 GB ] 7 хранителей гробницы / 7 Guardians of the Tomb [2018 WEB-DL 720p] MVO ["Синема УС"] bober100 Скачать
1 | 0
T Фильмы (мультфильмы) cо спонсором показа (Новинки AVI/MKV) [ 1.37 GB ] 7 хранителей гробницы / 7 Guardians of the Tomb [2018 WEB-DLRip] MVO ["Синема УС"] bober100 Скачать
1 | 0

28-11-2019 20:33  

Отключить всю рекламу на сайте

05-03-2018 15:54 7 хранителей гробницы Скачать торрент  

Цитата:

Хранители гробницы / 7 Guardians of the Tomb

Мне кажется или в шапке в названии ошибка закралась? Название должно быть 7 хранителей гробницы :-)pb.wtf
K-Lexx- писал(а):

Спасибо, исправлено.



05-03-2018 19:23 7 хранителей гробницы Скачать торрент  

BardakadraB писал(а):

Цитата:

Хранители гробницы / 7 Guardians of the Tomb

Мне кажется или в шапке в названии ошибка закралась? Название должно быть 7 хранителей гробницы :-)

Меня больше напрягает страна: ... которая третья.pb.wtf



    Дорогой пользователь! Огромная просьба, поблагодарите релизера, оцените раздачу и оставьте свои комментарий, если Вы скачали 7 хранителей гробницы через торрент бесплатно! Внесите свою лепту в развитие PiratBit!
    Комментировать посты могут только пользователи прошедшие не сложную регистрацию
    Показать сообщения:    

    7 хранителей гробницы через торрент
    Скачать бесплатно 7 хранителей гробницы
    7 хранителей гробницы скачать торрент
    7 хранителей гробницы смотреть онлайн
    Cкачать фильм 7 хранителей гробницы бесплатно
    7 хранителей гробницы скачать торрент в хорошем качестве
    7 хранителей гробницы смотреть онлайн бесплатно в хорошем качестве


    Вы не можете начинать темы
    Вы не можете отвечать на сообщения
    Вы не можете редактировать свои сообщения
    Вы не можете удалять свои сообщения
    Вы не можете голосовать в опросах
    Вы не можете прикреплять файлы к сообщениям
    Вы можете скачивать файлы