Ссылка на приватное зеркало всего за 1$. Внимание количество ограничено!!!

OK

1+1

iTunes

мы

OK

1

WEB-DLRip

Джокер

Пифагор

Ведьмак / The Witcher сериал

Лицензия

ПШазам

ОК

Оно 2

iTunes

30
pack

Вам бонус

ВАЖНО

!!Акция!!

Alien_RageХит недели

RePack

Resident Evil 21

ИГРА 18+

pack

RePack

jed

!!Акция!!

Alien_Rage

RePack

fifa19

RePack

Assassins Creed: Odyssey

RePack

NEED FOR SPEED™ PAYBACK

4 сезон

9 сезон

Бесстыжие 9 сезон

Все сериалы

все сериалы на PB.wtf

RePack

FAR CRY 5
  

7 хранителей гробницы / 7 Guardians of the Tomb (Кимбл Рендалл) [2018, боевик, приключения, ужасы, WEB-DL 1080p] DUB [Line] pb.wtf

7 хранителей гробницы через торрент pb.wtf

Размер: 3.46 GB | Добавлен: 1 год 10 мес. назад | Торрент скачан:228 раз
Скачать  

05-03-2018 06:40 7 хранителей гробницы Скачать торрент  

7 хранителей гробницы / 7 Guardians of the TombГод выпуска: 2018
Страна: Китай, Австралия, Россия, Таиланд
Жанр: боевик, приключения, ужасы
Продолжительность: 01:32:38
Перевод: Дублированный - Line
Субтитры: отсутствуют

Режиссер: Кимбл Рендалл

rating

В ролях:

Ли Бинбин, Келлан Латс, У Чунь, Келси Грэммер, Стэф Доусон, Ясмин Кассим, Тим Драксл, Шэйн Джейкобсон, Райан Джонсон, Джейсон Чонг

Описание:

Команда археологов отправляется в древние подземелья, чтобы найти потерянного товарища, но находят вместо него колонию разумных пауков-людоедов.

Качество: WEB-DL 1080p
Формат: MKV

Видео: 4967 Кбит/с, 1904x800
Аудио#1: Русский (AC3, 2 ch, 384 Кбит/с)
скриншот  скриншот  скриншот  

Общее
Уникальный идентификатор : 207936746476872947922664987303384578930 (0x9C6F2920DF0F6263AB8A9A378E69FB72)
Полное имя : E:\торреннты\Guardians.of.the.Tomb.2018.D.WEB-DL.1O8OP_KOSHARA.mkv
Формат : Matroska
Версия формата : Version 2
Размер файла : 3,46 Гбайт
Продолжительность : 1 ч. 32 м.
Режим общего битрейта : Переменный
Общий поток : 5352 Кбит/сек
Дата кодирования : UTC 2018-03-04 19:33:49
Программа кодирования : mkvmerge v8.3.0 ('Over the Horizon') 64bit
Библиотека кодирования : libebml v1.3.1 + libmatroska v1.4.2

Видео
Идентификатор : 1
Формат : AVC
Формат/Информация : Advanced Video Codec
Профиль формата : High@L4.1
Настройки формата : CABAC / 4 Ref Frames
Параметр CABAC формата : Да
Параметр RefFrames формата : 4 кадра
Идентификатор кодека : V_MPEG4/ISO/AVC
Продолжительность : 1 ч. 32 м.
Вид битрейта : Переменный
Битрейт : 4967 Кбит/сек
Максимальный битрейт : 5600 Кбит/сек
Ширина : 1904 пикселя
Высота : 800 пикселей
Соотношение сторон : 2,40:1
Режим частоты кадров : Постоянный
Частота кадров : 23,976 (24000/1001) кадра/сек
Стандарт вещания : Component
Цветовое пространство : YUV
Субдискретизация насыщенности : 4:2:0
Битовая глубина : 8 бит
Тип развёртки : Прогрессивная
Бит/(Пиксели*Кадры) : 0.133
Размер потока : 3,15 Гбайт (91%)
Default : Да
Forced : Нет
Цветовой диапазон : Limited
Основные цвета : BT.709
Характеристики трансфера : BT.709
Коэффициенты матрицы : BT.709

Аудио
Идентификатор : 2
Формат : AC-3
Формат/Информация : Audio Coding 3
Идентификатор кодека : A_AC3
Продолжительность : 1 ч. 32 м.
Вид битрейта : Постоянный
Битрейт : 384 Кбит/сек
Каналы : 2 канала
Расположение каналов : Front: L R
Частота : 48,0 КГц
Частота кадров : 31,250 кадров/сек (1536 SPF)
Битовая глубина : 16 бит
Метод сжатия : С потерями
Размер потока : 254 Мбайт (7%)
ServiceKind/String : Complete Main
Default : Да
Forced : Нет

pb.wtf



Скачать 7 хранителей гробницы через торрент http://img12.lostpic.net/2018/02/26/ee4fc14e4d6ece86cc8f59b0ce4a79d5.jpg Скачать фильм 7 хранителей гробницы через торрент бесплантно в хорошем качестве Описание: Команда археологов отправляется в древние подземелья, чтобы найти потерянного товарища, но находят вместо него колонию разумных ... 8.8 10 10
Торрент: Зарегистрирован [2018-03-05 06:40] · скачан: 228 раз
Статус: T временная
Размер: 3.46 GB
Как cкачать? Как скачать 7 хранителей гробницы через торрент | qTorrent

% Раздел Тема Автор DL S | L
T Фильмы (мультфильмы) cо спонсором показа (Новинки AVI/MKV) [ 1.37 GB ] 7 хранителей гробницы / 7 Guardians of the Tomb [2018 WEB-DLRip] DUB [Чистый звук] Loc387 Скачать
1 | 0
T Фильмы (мультфильмы) cо спонсором показа (Новинки AVI/MKV) [ 3.21 GB ] 7 хранителей гробницы / 7 Guardians of the Tomb [2018 WEB-DL 720p] DUB [Line] bober100 Скачать
1 | 0
T Фильмы (мультфильмы) cо спонсором показа (Новинки AVI/MKV) [ 3.33 GB ] 7 хранителей гробницы / 7 Guardians of the Tomb [2018 WEB-DL 720p] MVO ["Синема УС"] bober100 Скачать
1 | 0
T Фильмы (мультфильмы) cо спонсором показа (Новинки AVI/MKV) [ 1.37 GB ] 7 хранителей гробницы / 7 Guardians of the Tomb [2018 WEB-DLRip] MVO ["Синема УС"] bober100 Скачать
1 | 0

28-11-2019 20:33  

Отключить всю рекламу на сайте

05-03-2018 17:05 7 хранителей гробницы Скачать торрент  

Скриншоты потрясающиеpb.wtf



05-03-2018 19:19 7 хранителей гробницы Скачать торрент  

cdc887892 писал(а):

Скриншоты потрясающие

Скриншоты только для того, что бы оценить качество видео.
Не питай иллюзий.pb.wtf



05-03-2018 21:12 7 хранителей гробницы Скачать торрент  

Аминак писал(а):

cdc887892 писал(а):

Скриншоты потрясающие

Скриншоты только для того, что бы оценить качество видео.
Не питай иллюзий.

Я думаю ты не понял)) это наверное был сарказмpb.wtf



06-03-2018 09:21 7 хранителей гробницы Скачать торрент  

Такое Г....pb.wtf



06-03-2018 14:43 7 хранителей гробницы Скачать торрент  

Для любителей пауков.pb.wtf



06-03-2018 17:14 7 хранителей гробницы Скачать торрент  

GuruBrain писал(а):

Аминак писал(а):

cdc887892 писал(а):

Скриншоты потрясающие

Скриншоты только для того, что бы оценить качество видео.
Не питай иллюзий.

Я думаю ты не понял)) это наверное был сарказм

Чувак, это как раз ты не понял, это был двойной сарказм :)pb.wtf



    Дорогой пользователь! Огромная просьба, поблагодарите релизера, оцените раздачу и оставьте свои комментарий, если Вы скачали 7 хранителей гробницы через торрент бесплатно! Внесите свою лепту в развитие PiratBit!
    Комментировать посты могут только пользователи прошедшие не сложную регистрацию
    Показать сообщения:    

    7 хранителей гробницы через торрент
    Скачать бесплатно 7 хранителей гробницы
    7 хранителей гробницы скачать торрент
    7 хранителей гробницы смотреть онлайн
    Cкачать фильм 7 хранителей гробницы бесплатно
    7 хранителей гробницы скачать торрент в хорошем качестве
    7 хранителей гробницы смотреть онлайн бесплатно в хорошем качестве


    Вы не можете начинать темы
    Вы не можете отвечать на сообщения
    Вы не можете редактировать свои сообщения
    Вы не можете удалять свои сообщения
    Вы не можете голосовать в опросах
    Вы не можете прикреплять файлы к сообщениям
    Вы можете скачивать файлы