2 сезон

iTunes

MVO

1

2 сезон

iTunes

iTunes

1 сезон

RePack

30

Ultimate

ВАЖНО

ИГРА 18+

pack

RePack

MK11
pack

Легкие деньги

RePack

jed

RePack

fifa19

RePack

RDR2

RePack

NEED FOR SPEED™ PAYBACK

4 сезон

9 сезон

Бесстыжие 9 сезон

Все сериалы

все сериалы на PB.wtf

RePack

FAR CRY 5

Anonymous, добрый день, мы не успеваем собрать деньги на оплату серверов за декабрь и январь, помогите нам пожалуйста в это трудное время. В качестве благодарности мы отключим Вам всю рекламу на сайте (укажите свой ник в строку Ваше имя)!

×
  
Magnet ссылка

Leprous - Malina - 2017/ FLAC/ image +.cue/ lossless/ Progressive Rock pb.wtf

Leprous - Malina - 2017 через торрент pb.wtf

Размер: 668 MB | Добавлен: 2 года 10 мес. назад | Торрент скачан:18 раз
Скачать  

05-03-2018 06:56 Leprous - Malina - 2017 Скачать торрент  


Leprous - Malina


Год издания: 2017
Страна: Norway
Жанр: Progressive Rock
Продолжительность: 01:03:02
Лейбл издания: Inside Out Music, Sony Music
Страна-выпуска диска: EU
Номер по каталогу: 88985450462
Формат: FLAC
Битрейт аудио: Lossless
Тип рипа: image +.cue
Наличие сканов в содержимом раздачи: да


01. Bonneville (5:29)
02. Stuck (6:49)
03. From The Flame (3:51)
04. Captive (3:44)
05. Illuminate (4:21)
06. Leashes (4:10)
07. Mirage (6:48)
08. Malina (6:15)
09. Coma (3:55)
10. The Weight Of Disaster (6:01)
11. The Last Milestone (7:31)
12. Root (Bonus Track) (4:08)

Код:

Exact Audio Copy V1.3 from 2. September 2016

EAC extraction logfile from 29. October 2017, 21:54

Leprous / Malina

Used drive  : ASUS    DRW-24B3ST   Adapter: 1  ID: 0

Read mode               : Secure
Utilize accurate stream : Yes
Defeat audio cache      : Yes
Make use of C2 pointers : No

Read offset correction                      : 6
Overread into Lead-In and Lead-Out          : No
Fill up missing offset samples with silence : Yes
Delete leading and trailing silent blocks   : No
Null samples used in CRC calculations       : Yes
Used interface                              : Native Win32 interface for Win NT & 2000

Used output format              : User Defined Encoder
Selected bitrate                : 1024 kBit/s
Quality                         : High
Add ID3 tag                     : No
Command line compressor         : C:\Program Files (x86)\Exact Audio Copy\FLAC\FLAC.EXE
Additional command line options : -V -8 -T "Date=%year%" -T "Genre=%genre%" %source%

TOC of the extracted CD

     Track |   Start  |  Length  | Start sector | End sector
    ---------------------------------------------------------
        1  |  0:00.00 |  5:28.41 |         0    |    24640
        2  |  5:28.41 |  6:48.53 |     24641    |    55293
        3  | 12:17.19 |  3:51.26 |     55294    |    72644
        4  | 16:08.45 |  3:43.44 |     72645    |    89413
        5  | 19:52.14 |  4:21.31 |     89414    |   109019
        6  | 24:13.45 |  4:09.49 |    109020    |   127743
        7  | 28:23.19 |  6:48.36 |    127744    |   158379
        8  | 35:11.55 |  6:15.20 |    158380    |   186524
        9  | 41:27.00 |  3:55.23 |    186525    |   204172
       10  | 45:22.23 |  6:00.70 |    204173    |   231242
       11  | 51:23.18 |  7:30.56 |    231243    |   265048
       12  | 58:53.74 |  4:08.01 |    265049    |   283649

Range status and errors

Selected range

     Filename D:\mekong\Leprous - Malina.wav

     Peak level 100.0 %
     Extraction speed 5.8 X
     Range quality 100.0 %
     Test CRC C7D2D394
     Copy CRC C7D2D394
     Copy OK

No errors occurred

AccurateRip summary

Track  1  accurately ripped (confidence 4)  [DAF3AFE1]  (AR v2)
Track  2  accurately ripped (confidence 4)  [BB5753E3]  (AR v2)
Track  3  accurately ripped (confidence 4)  [BE838555]  (AR v2)
Track  4  accurately ripped (confidence 3)  [0685ABFB]  (AR v2)
Track  5  accurately ripped (confidence 3)  [21314BD8]  (AR v2)
Track  6  accurately ripped (confidence 3)  [6CD7DFAD]  (AR v2)
Track  7  accurately ripped (confidence 3)  [5F171206]  (AR v2)
Track  8  accurately ripped (confidence 3)  [0BB5DE90]  (AR v2)
Track  9  accurately ripped (confidence 4)  [D8FF739A]  (AR v2)
Track 10  accurately ripped (confidence 4)  [F6C84CF9]  (AR v2)
Track 11  accurately ripped (confidence 4)  [6B85E113]  (AR v2)
Track 12  accurately ripped (confidence 4)  [BE73327B]  (AR v2)

All tracks accurately ripped

End of status report

Код:

REM GENRE "Progressive Rock"
REM DATE 2017
REM DISCID A30EC60C
REM COMMENT "ExactAudioCopy v1.3"
PERFORMER "Leprous"
TITLE "Malina"
REM COMPOSER ""
FILE "Leprous - Malina.flac" WAVE
  TRACK 01 AUDIO
    TITLE "Bonneville"
    PERFORMER "Leprous"
    REM COMPOSER ""
    ISRC GBDHC1779201
    INDEX 01 00:00:00
  TRACK 02 AUDIO
    TITLE "Stuck"
    PERFORMER "Leprous"
    REM COMPOSER ""
    ISRC GBDHC1779202
    INDEX 01 05:28:41
  TRACK 03 AUDIO
    TITLE "From The Flame"
    PERFORMER "Leprous"
    REM COMPOSER ""
    ISRC GBDHC1779203
    INDEX 01 12:17:19
  TRACK 04 AUDIO
    TITLE "Captive"
    PERFORMER "Leprous"
    REM COMPOSER ""
    ISRC GBDHC1779204
    INDEX 01 16:08:45
  TRACK 05 AUDIO
    TITLE "Illuminate"
    PERFORMER "Leprous"
    REM COMPOSER ""
    ISRC GBDHC1779205
    INDEX 01 19:52:14
  TRACK 06 AUDIO
    TITLE "Leashes"
    PERFORMER "Leprous"
    REM COMPOSER ""
    ISRC GBDHC1779206
    INDEX 01 24:13:45
  TRACK 07 AUDIO
    TITLE "Mirage"
    PERFORMER "Leprous"
    REM COMPOSER ""
    ISRC GBDHC1779207
    INDEX 01 28:23:19
  TRACK 08 AUDIO
    TITLE "Malina"
    PERFORMER "Leprous"
    REM COMPOSER ""
    ISRC GBDHC1779208
    INDEX 01 35:11:55
  TRACK 09 AUDIO
    TITLE "Coma"
    PERFORMER "Leprous"
    REM COMPOSER ""
    ISRC GBDHC1779209
    INDEX 01 41:27:00
  TRACK 10 AUDIO
    TITLE "The Weight Of Disaster"
    PERFORMER "Leprous"
    REM COMPOSER ""
    ISRC GBDHC1779210
    INDEX 01 45:22:23
  TRACK 11 AUDIO
    TITLE "The Last Milestone"
    PERFORMER "Leprous"
    REM COMPOSER ""
    ISRC GBDHC1779211
    INDEX 01 51:23:18
  TRACK 12 AUDIO
    TITLE "Root (Bonus Track)"
    PERFORMER "Leprous"
    REM COMPOSER ""
    ISRC GBDHC1779212
    INDEX 01 58:53:74




pb.wtf



Скачать Leprous - Malina - 2017 через торрент http://i102.fastpic.ru/big/2018/0303/ec/1a88cd8981175de4747c081a2f4650ec.png Скачать фильм Leprous - Malina - 2017через торрент бесплантно в хорошем качестве Трэклист Bonneville (5:29) Stuck (6:49) From The Flame (3:51) Captive (3:44) Illuminate (4:21) ... 5 10 1
Торрент: Зарегистрирован [2018-03-05 06:56] · скачан: 18 раз
Статус: √ проверено
Размер: 668 MB
Как cкачать? Как скачать Leprous - Malina - 2017 через торрент | UTorrent

28-11-2019 20:33  

Отключить всю рекламу на сайте

    Дорогой пользователь! Огромная просьба, поблагодарите релизера, оцените раздачу и оставьте свои комментарий, если Вы скачали Leprous - Malina - 2017 через торрент бесплатно! Внесите свою лепту в развитие PiratBit!
    Комментировать посты могут только пользователи прошедшие не сложную регистрацию
    Показать сообщения:    

    Leprous - Malina - 2017 через торрент
    Скачать бесплатно Leprous - Malina - 2017
    Leprous - Malina - 2017 скачать торрент
    Leprous - Malina - 2017 смотреть онлайн
    Cкачать фильм Leprous - Malina - 2017 бесплатно
    Leprous - Malina - 2017 скачать торрент в хорошем качестве
    Leprous - Malina - 2017 смотреть онлайн бесплатно в хорошем качестве


    Вы не можете начинать темы
    Вы не можете отвечать на сообщения
    Вы не можете редактировать свои сообщения
    Вы не можете удалять свои сообщения
    Вы не можете голосовать в опросах
    Вы не можете прикреплять файлы к сообщениям
    Вы можете скачивать файлы