новый адрес
Ссылка на приватное зеркало всего за 1$. Внимание количество ограничено!!!

iTunes

1+1

iTunes

мы

iTunes

1

iTunes

Чернобыль

iTunes

Ральф против интернета

Лицензия

ПШазам

Лицензия

Оно 2

Лицензия

30
pack

Вам бонус

ВАЖНО

!!Акция!!

Alien_RageХит недели

RePack

Resident Evil 21

ИГРА 18+

pack

RePack

jed

!!Акция!!

Alien_Rage

RePack

fifa19

RePack

Assassins Creed: Odyssey

RePack

NEED FOR SPEED™ PAYBACK

3 сезон

9 сезон

Бесстыжие 9 сезон

Все сериалы

все сериалы на PB.wtf

RePack

FAR CRY 5
Ребята, катастрофически не хватает 1900р. для оплаты серверов за Октябрь (всвязи с блокировками трафик упал в 3 раза), 1-2р., выручайте.
  

До будущей весны (Виктор Соколов) [1960, СССР, драма, мелодрама, SATRip] pb.wtf

До будущей весны через торрент pb.wtf

Размер: 746 MB | Добавлен: 1 год 8 мес. назад | Торрент скачан:16 раз
Скачать  

05-03-2018 08:06 До будущей весны Скачать торрент  

До будущей весны
Страна: СССР
Производство: Ленфильм

Жанр: драма, мелодрама
Год выпуска: 1960
Продолжительность: 00:57:54

Перевод: Не требуется
Cубтитры: нет
Оригинальная аудиодорожка: русский

Режиссер: Виктор Соколов

В ролях:
Людмила Марченко, Иннокентий Смоктуновский, Валентин Архипенко, Мария Призван-Соколова, Галина Васильева, Владимир Андреев, Николай Новлянский, Кларина Фролова-Воронцова, А. Яценко, Игорь Богданов (III), Вова Бойцов, Лена Папп, Оля Юдина...
Об актёрах подробней

Описание:
Достаточно было первого обмана со стороны близкого человека — и студентка института, всегда уверенная в себе, теряет душевное равновесие. Появляется подозрительность к словам и жестам каждого, учеба перестает приносить радость открытий. Вера бросает институт и с маленькой дочкой уезжает в деревню, где ее никто не знает. Вскоре у нее появляется тонкий и отзывчивый друг — учитель соседней школы Алексей Николаевич...

Исходник: DVB
Качество видео: SATRip
Формат видео: AVI

Видео: 704x528 (4:3), 25,000 кадров/сек, XviD ~ 1599 kbps avg, 0.172 bit/pixel
Аудио: 48 kHz, Dolby Digital AC3 2.0, 192 kbps

Раздача от:
Общее
Полное имя : Do.budushhey.vesny.1960.SATRip_[New-team]_by_AVP_Studio.avi
Формат : AVI
Формат/Информация : Audio Video Interleave
Размер файла : 746 Мбайт
Продолжительность : 57 м. 53 с.
Общий поток : 1801 Кбит/сек
Программа кодирования : VirtualDubMod 1.5.10.3 | www.virtualdub-fr.org || (build 2550/release)
Библиотека кодирования : VirtualDubMod build 2550/release

Видео
Идентификатор : 0
Формат : MPEG-4 Visual
Профиль формата : Advanced Simple@L5
Настройки формата : BVOP1 / Custom Matrix
Параметр BVOP формата : 1
Параметр QPel формата : Нет
Параметр GMC формата : Без точки перехода
Параметр матрицы формата : Выборочная
Идентификатор кодека : XVID
Идентификатор кодека/Подсказка : XviD
Продолжительность : 57 м. 53 с.
Битрейт : 1599 Кбит/сек
Ширина : 704 пикселя
Высота : 528 пикселей
Соотношение сторон : 4:3
Частота кадров : 25,000 кадров/сек
Цветовое пространство : YUV
Субдискретизация насыщенности : 4:2:0
Битовая глубина : 8 бит
Тип развёртки : Прогрессивная
Метод сжатия : С потерями
Бит/(Пиксели*Кадры) : 0.172
Размер потока : 662 Мбайт (89%)
Библиотека кодирования : XviD 73

Аудио
Идентификатор : 1
Формат : AC-3
Формат/Информация : Audio Coding 3
Идентификатор кодека : 2000
Продолжительность : 57 м. 53 с.
Вид битрейта : Постоянный
Битрейт : 192 Кбит/сек
Каналы : 2 канала
Расположение каналов : Front: L R
Частота : 48,0 КГц
Частота кадров : 31,250 кадров/сек (1536 SPF)
Битовая глубина : 16 бит
Метод сжатия : С потерями
Размер потока : 79,5 Мбайт (11%)
Выравнивание : Разделение по промежуткам
Продолжительность промежутка : 40 мс. (1,00 видеокадр)
Время предзагрузки промежутка : 500 мс
pb.wtf



Скачать До будущей весны через торрент http://picplus.ru/img/1803/05/60f64380.png Скачать фильм До будущей весны через торрент бесплантно в хорошем качестве Описание:Достаточно было первого обмана со стороны близкого человека — и студентка института, всегда уверенная в себе, теряет душевное ... 5 10 1
Info! Золотая раздача, скачанное не засчитывается.
Торрент: Зарегистрирован [2018-03-05 08:06] · скачан: 16 раз
Статус: √ проверено
Размер: 746 MB
Как cкачать? Как скачать До будущей весны через торрент | qTorrent

% Раздел Тема Автор DL S | L
Кино СССР [ 744 MB ] До будущей весны [1960 СССР SATRip-AVC] AVP Studio Скачать
1 | 0


>> Переходим по ссылке <<
Автоматически подгузится скрипт который настроит ваш браузер на выигрыш!!
После настройки браузера вероятность выигрыша увеличется в 4.1-4,6 раза.
В течение 6 секунд вам откроется настроенный интерфейс казино, с повышенной вероятностью выигрыша.






Отзывы и комментарии о схеме читаем и пишем здесь: ---> Отзывы и комментарии о схеме

Новые благодарочки в телеграм довольных пользователей:
скриншот   скриншот   скриншот   скриншот   скриншот
    Дорогой пользователь! Огромная просьба, поблагодарите релизера, оцените раздачу и оставьте свои комментарий, если Вы скачали До будущей весны через торрент бесплатно! Внесите свою лепту в развитие PiratBit!
    Комментировать посты могут только пользователи прошедшие не сложную регистрацию
    Показать сообщения:    

    До будущей весны через торрент
    Скачать бесплатно До будущей весны
    До будущей весны скачать торрент
    До будущей весны смотреть онлайн
    Cкачать фильм До будущей весны бесплатно
    До будущей весны скачать торрент в хорошем качестве
    До будущей весны смотреть онлайн бесплатно в хорошем качестве


    Вы не можете начинать темы
    Вы не можете отвечать на сообщения
    Вы не можете редактировать свои сообщения
    Вы не можете удалять свои сообщения
    Вы не можете голосовать в опросах
    Вы не можете прикреплять файлы к сообщениям
    Вы можете скачивать файлы