Ссылка на приватное зеркало нашего сайта всего за 1$. Внимание количество ограничено!!!

2 сезон

iTunes

1 сезон

1

2 сезон

2 сезон

iTunes

1 сезон

RePack

30

Ultimate

ВАЖНО

ИГРА 18+

pack

RePack

MK11
pack

Забери бонус

RePack

jed

!!Акция!!

Alien_Rage

RePack

fifa19

RePack

Assassins Creed: Odyssey

RePack

NEED FOR SPEED™ PAYBACK

4 сезон

9 сезон

Бесстыжие 9 сезон

Все сериалы

все сериалы на PB.wtf

RePack

FAR CRY 5
  

Serenity - Дискография (Full Length) (8CD) - 2007-2017/ FLAC/ image +.cue/ lossless/ Symphonic/Progressive Power Metal pb.wtf

Serenity - Дискография через торрент pb.wtf

Размер: 3.83 GB | Добавлен: 2 года 8 мес. назад | Торрент скачан:10 раз
Скачать  

05-03-2018 12:25 Serenity - Дискография Скачать торрент  


Serenity - Дискография (Full Length) (8CD)


Год издания: 2007 - 2017
Страна: Austria (Wörgl, Tyrol)
Жанр: Symphonic/Progressive Power Metal
Продолжительность: 07:25:45
Лейбл издания: Avalon/Marquee Inc./Soundholic Co., Ltd./Napalm Records
Страна-выпуска диска: Japan/Germany
Номер по каталогу: указано к альбому
Формат: FLAC
Битрейт аудио: Lossless
Тип рипа: image +.cue
Наличие сканов в содержимом раздачи: да


Лейбл издания: Tokuma SoundHolic CO LTD.
Страна-выпуска диска: Japan
Номер по каталогу: TKCS-85172
Продолжительность: 00:47:30




01. Canopus 3 (4:31)
02. Reduced to Nothingness (4:55)
03. Words Untold (Instrumental) (0:59)
04. Circle of My 2nd Life (5:33)
05. Engraved Within (6:22)
06. Forever (6:43)
07. Dreams Unlived (Instrumental) (0:51)
08. Dead Man Walking (4:54)
09. From Where the Dark Is Born (6:18)
10. Thriven (6:24)

Лейбл издания: Napalm Records
Страна-выпуска диска: Germany
Номер по каталогу: NPR 250 CD
Продолжительность: 00:49:45




01. All Lights Reversed (6:18)
02. Rust of Coming Ages (4:30)
03. Coldness Kills (5:28)
04. To Stone She Turned (4:58)
05. Fairytales (4:54)
06. The Heartblood Symphony (5:27)
07. Velatum (4:29)
08. Derelict (4:26)
09. Sheltered (by the Obscure) (5:00)
10. Oceans of Ruby (4:15)

Лейбл издания: AVALON
Страна-выпуска диска: Japan
Номер по каталогу: MICP-10969
Продолжительность: 01:14:30




01. Set Sail to... (Intro) (0:29)
02. New Horizons (6:50)
03. The Chevalier (5:33)
04. Far From Home (4:49)
05. Heavenly Mission (5:24)
06. Prayer (Interlude) (1:22)
07. State of Siege (6:48)
08. Changing Fate (5:42)
09. When Canvas Starts to Burn (4:49)
10. Serenade of Flames (4:56)
11. Youngest of Widows (Bonus Track) (4:08)
12. Below Eastern Skies (Interlude) (1:35)
13. Beyond Desert Sands (4:55)
14. To India's Shores (Bonus Track) (4:35)
15. Lament (Interlude) (0:41)
16. My Legacy (4:47)
17. Guiding Light (Bonus Track) (7:07)

Лейбл издания: Napalm Records
Страна-выпуска диска: Germany
Номер по каталогу: NPR 361 CD
Продолжительность: 01:07:21




01. Set Sail to... (Intro) (0:29)
02. New Horizons (6:50)
03. The Chevalier (5:33)
04. Far From Home (4:49)
05. Heavenly Mission (5:24)
06. Prayer (Interlude) (1:22)
07. State of Siege (6:48)
08. Changing Fate (5:42)
09. When Canvas Starts to Burn (4:49)
10. Serenade of Flames (4:56)
11. Youngest of Widows (Bonus Track) (4:08)
12. Below Eastern Skies (Interlude) (1:35)
13. Beyond Desert Sands (4:55)
14. To India's Shores (Bonus Track) (4:35)
15. Lament (Interlude) (0:41)
16. My Legacy (4:45)

Лейбл издания: AVALON
Страна-выпуска диска: Japan
Номер по каталогу: MICP-11091
Продолжительность: 01:01:13




01. Wings of Madness (5:51)
02. The Art of War (5:09)
03. Shining Oasis (5:09)
04. For Freedom's Sake (4:35)
05. Age of Glory (6:39)
06. The Matricide (4:56)
07. Symphony for the Quiet (4:57)
08. Tannenberg (5:49)
09. Legacy of Tudors (5:02)
10. Royal Pain (4:46)
11. Fairytales (Piano Version) (Bonus Track) (4:29)
12. Love of My Life (Bonus Track) (3:50)

Лейбл издания: AVALON
Страна-выпуска диска: Japan
Номер по каталогу: MICP-11266
Продолжительность: 01:08:59




01. Codex Atlanticus (1:56)
02. Follow Me (3:52)
03. Sprouts Of Terror (5:15)
04. Iniquity (5:34)
05. Reason (4:14)
06. My Final Chapter (4:13)
07. Caught In A Myth (5:35)
08. Fate Of Light (4:45)
09. The Perfect Woman (4:57)
10. Spirit In The Flesh (5:02)
11. The Order (5:26)
12. Forgive Me (Bonus Track) (5:33)
13. Sail (Bonus Track) (4:13)
14. My Final Chapter (Orchestral Version) (Bonus Track) (4:13)
15. My Final Chapter (Instrumental Version) (Bonus Track) (4:11)

Лейбл издания: Napalm Records
Страна-выпуска диска: Germany
Номер по каталогу: NPR 721 DP
Продолжительность: 00:54:45




01. Deus Lo Vult (1:52)
02. United (5:34)
03. Lionheart (4:38)
04. Hero (4:25)
05. Rising High (3:31)
06. Heaven (4:09)
07. King's Landing (2:11)
08. Eternal Victory (4:41)
09. Stand and Fight (4:26)
10. The Fortress (of Blood and Sand) (4:27)
11. Empire (4:28)
12. My Fantasy (4:46)
13. The Final Crusade (5:38)

Лейбл издания: Napalm Records
Страна-выпуска диска: Germany
Номер по каталогу: NPR 721 Bonus
Продолжительность: 00:21:41




01. Engraved Within (Piano Version) (4:30)
02. When Canvas Starts To Burn (Piano Version) (3:35)
03. Coldness Kills (Piano Version) (4:54)
04. To India's Shores (Death & Legacy) (4:36)
05. Youngest Of Widows (Death & Legacy) (4:06)

Код:

Exact Audio Copy V1.3 from 2. September 2016

EAC extraction logfile from 15. February 2017, 15:17

Serenity / Words Untold & Dreams Unlived (Japan)

Used drive  : ATAPI   iHAS122   W   Adapter: 2  ID: 0

Read mode               : Secure
Utilize accurate stream : Yes
Defeat audio cache      : Yes
Make use of C2 pointers : No

Read offset correction                      : 48
Overread into Lead-In and Lead-Out          : No
Fill up missing offset samples with silence : Yes
Delete leading and trailing silent blocks   : No
Null samples used in CRC calculations       : Yes
Used interface                              : Installed external ASPI interface

Used output format              : User Defined Encoder
Selected bitrate                : 1024 kBit/s
Quality                         : High
Add ID3 tag                     : No
Command line compressor         : C:\Program Files\FLAC\flac.exe
Additional command line options : -V -8 -T "Date=%year%" -T "Genre=%genre%" -T"COMMENT=Ripped by  Ilijan - ilko" -8 -V %source%

TOC of the extracted CD

     Track |   Start  |  Length  | Start sector | End sector
    ---------------------------------------------------------
        1  |  0:00.00 |  4:31.00 |         0    |    20324
        2  |  4:31.00 |  4:55.03 |     20325    |    42452
        3  |  9:26.03 |  0:58.38 |     42453    |    46840
        4  | 10:24.41 |  5:33.07 |     46841    |    71822
        5  | 15:57.48 |  6:22.00 |     71823    |   100472
        6  | 22:19.48 |  6:43.00 |    100473    |   130697
        7  | 29:02.48 |  0:51.17 |    130698    |   134539
        8  | 29:53.65 |  4:54.23 |    134540    |   156612
        9  | 34:48.13 |  6:18.02 |    156613    |   184964
       10  | 41:06.15 |  6:24.01 |    184965    |   213765

Range status and errors

Selected range

     Filename D:\ilko\Serenity - Words Untold & Dreams Unlived (Japan).wav

     Peak level 99.6 %
     Extraction speed 3.8 X
     Range quality 99.9 %
     Test CRC 566ED963
     Copy CRC 566ED963
     Copy OK

No errors occurred

AccurateRip summary

Track  1  accurately ripped (confidence 3)  [6F94DE16]  (AR v1)
Track  2  accurately ripped (confidence 3)  [E1ADFA91]  (AR v1)
Track  3  accurately ripped (confidence 3)  [B29238E3]  (AR v1)
Track  4  accurately ripped (confidence 3)  [EC1CF950]  (AR v1)
Track  5  accurately ripped (confidence 3)  [94A993EC]  (AR v1)
Track  6  accurately ripped (confidence 3)  [85B87583]  (AR v1)
Track  7  accurately ripped (confidence 3)  [52F9E13F]  (AR v1)
Track  8  accurately ripped (confidence 3)  [B2DFC1CD]  (AR v1)
Track  9  accurately ripped (confidence 3)  [D64916D5]  (AR v1)
Track 10  accurately ripped (confidence 3)  [74F14C2A]  (AR v1)

All tracks accurately ripped

End of status report

Код:

Exact Audio Copy V1.3 from 2. September 2016

EAC extraction logfile from 15. February 2017, 15:49

Serenity / Fallen Sanctuary

Used drive  : ATAPI   iHAS122   W   Adapter: 2  ID: 0

Read mode               : Secure
Utilize accurate stream : Yes
Defeat audio cache      : Yes
Make use of C2 pointers : No

Read offset correction                      : 48
Overread into Lead-In and Lead-Out          : No
Fill up missing offset samples with silence : Yes
Delete leading and trailing silent blocks   : No
Null samples used in CRC calculations       : Yes
Used interface                              : Installed external ASPI interface

Used output format              : User Defined Encoder
Selected bitrate                : 1024 kBit/s
Quality                         : High
Add ID3 tag                     : No
Command line compressor         : C:\Program Files\FLAC\flac.exe
Additional command line options : -V -8 -T "Date=%year%" -T "Genre=%genre%" -T"COMMENT=Ripped by  Ilijan - ilko" -8 -V %source%

TOC of the extracted CD

     Track |   Start  |  Length  | Start sector | End sector
    ---------------------------------------------------------
        1  |  0:00.00 |  6:17.59 |         0    |    28333
        2  |  6:17.59 |  4:30.31 |     28334    |    48614
        3  | 10:48.15 |  5:27.58 |     48615    |    73197
        4  | 16:15.73 |  4:58.32 |     73198    |    95579
        5  | 21:14.30 |  4:53.48 |     95580    |   117602
        6  | 26:08.03 |  5:27.04 |    117603    |   142131
        7  | 31:35.07 |  4:29.19 |    142132    |   162325
        8  | 36:04.26 |  4:26.20 |    162326    |   182295
        9  | 40:30.46 |  5:00.07 |    182296    |   204802
       10  | 45:30.53 |  4:14.48 |    204803    |   223900
       11  | 52:17.26 | 11:57.32 |    235301    |   289107

Range status and errors

Selected range

     Filename D:\ilko\Serenity - Fallen Sanctuary.wav

     Peak level 99.9 %
     Extraction speed 4.0 X
     Range quality 99.9 %
     Test CRC DFBE3AAF
     Copy CRC DFBE3AAF
     Copy OK

No errors occurred

AccurateRip summary

Track  1  accurately ripped (confidence 6)  [114C308D]  (AR v2)
Track  2  accurately ripped (confidence 6)  [F19C2AB2]  (AR v2)
Track  3  accurately ripped (confidence 6)  [CF7CB3DF]  (AR v2)
Track  4  accurately ripped (confidence 6)  [6E3ADA8E]  (AR v2)
Track  5  accurately ripped (confidence 6)  [B9A6B5CE]  (AR v2)
Track  6  accurately ripped (confidence 6)  [331AA188]  (AR v2)
Track  7  accurately ripped (confidence 6)  [3CC8A8AC]  (AR v2)
Track  8  accurately ripped (confidence 6)  [FDAFE754]  (AR v2)
Track  9  accurately ripped (confidence 6)  [EC9F2B87]  (AR v2)
Track 10  accurately ripped (confidence 6)  [AE374C8D]  (AR v2)

All tracks accurately ripped

End of status report

Код:

Exact Audio Copy V1.3 from 2. September 2016

EAC extraction logfile from 15. February 2017, 16:28

Serenity / Death & Legacy (Japan)

Used drive  : ATAPI   iHAS122   W   Adapter: 2  ID: 0

Read mode               : Secure
Utilize accurate stream : Yes
Defeat audio cache      : Yes
Make use of C2 pointers : No

Read offset correction                      : 48
Overread into Lead-In and Lead-Out          : No
Fill up missing offset samples with silence : Yes
Delete leading and trailing silent blocks   : No
Null samples used in CRC calculations       : Yes
Used interface                              : Installed external ASPI interface

Used output format              : User Defined Encoder
Selected bitrate                : 1024 kBit/s
Quality                         : High
Add ID3 tag                     : No
Command line compressor         : C:\Program Files\FLAC\flac.exe
Additional command line options : -V -8 -T "Date=%year%" -T "Genre=%genre%" -T"COMMENT=Ripped by  Ilijan - ilko" -8 -V %source%

TOC of the extracted CD

     Track |   Start  |  Length  | Start sector | End sector
    ---------------------------------------------------------
        1  |  0:00.00 |  0:29.34 |         0    |     2208
        2  |  0:29.34 |  6:49.73 |      2209    |    32956
        3  |  7:19.32 |  5:32.63 |     32957    |    57919
        4  | 12:52.20 |  4:48.57 |     57920    |    79576
        5  | 17:41.02 |  5:24.01 |     79577    |   103877
        6  | 23:05.03 |  1:22.34 |    103878    |   110061
        7  | 24:27.37 |  6:48.29 |    110062    |   140690
        8  | 31:15.66 |  5:42.03 |    140691    |   166343
        9  | 36:57.69 |  4:48.44 |    166344    |   187987
       10  | 41:46.38 |  4:55.50 |    187988    |   210162
       11  | 46:42.13 |  4:08.01 |    210163    |   228763
       12  | 50:50.14 |  1:35.05 |    228764    |   235893
       13  | 52:25.19 |  4:54.73 |    235894    |   258016
       14  | 57:20.17 |  4:34.51 |    258017    |   278617
       15  | 61:54.68 |  0:40.52 |    278618    |   281669
       16  | 62:35.45 |  4:47.01 |    281670    |   303195
       17  | 67:22.46 |  7:07.01 |    303196    |   335221

Range status and errors

Selected range

     Filename D:\ilko\Serenity - Death & Legacy (Japan).wav

     Peak level 99.9 %
     Extraction speed 4.6 X
     Range quality 100.0 %
     Test CRC 088C2744
     Copy CRC 088C2744
     Copy OK

No errors occurred

AccurateRip summary

Track  1  accurately ripped (confidence 2)  [E6037247]  (AR v2)
Track  2  accurately ripped (confidence 2)  [FB74D4BC]  (AR v2)
Track  3  accurately ripped (confidence 2)  [6AD9E40C]  (AR v2)
Track  4  accurately ripped (confidence 2)  [97C60EF6]  (AR v2)
Track  5  accurately ripped (confidence 2)  [4E9590F0]  (AR v2)
Track  6  accurately ripped (confidence 2)  [0AD8C92D]  (AR v2)
Track  7  accurately ripped (confidence 2)  [0A66B3F3]  (AR v2)
Track  8  accurately ripped (confidence 2)  [2D188FF3]  (AR v2)
Track  9  accurately ripped (confidence 2)  [D1C92C1D]  (AR v2)
Track 10  accurately ripped (confidence 2)  [48C16CB0]  (AR v2)
Track 11  accurately ripped (confidence 2)  [C86C12BC]  (AR v2)
Track 12  accurately ripped (confidence 2)  [0D07146D]  (AR v2)
Track 13  accurately ripped (confidence 2)  [BCFDA55F]  (AR v2)
Track 14  accurately ripped (confidence 2)  [9DAF3218]  (AR v2)
Track 15  accurately ripped (confidence 2)  [705B68C5]  (AR v2)
Track 16  accurately ripped (confidence 2)  [F9B6B2C5]  (AR v2)
Track 17  accurately ripped (confidence 2)  [963B266C]  (AR v2)

All tracks accurately ripped

End of status report

Код:

Exact Audio Copy V1.3 from 2. September 2016

EAC extraction logfile from 15. February 2017, 18:13

Serenity / Death & Legacy

Used drive  : MATSHITADVD-RAM UJ8G6   Adapter: 1  ID: 0

Read mode               : Secure
Utilize accurate stream : Yes
Defeat audio cache      : Yes
Make use of C2 pointers : No

Read offset correction                      : 103
Overread into Lead-In and Lead-Out          : No
Fill up missing offset samples with silence : Yes
Delete leading and trailing silent blocks   : No
Null samples used in CRC calculations       : Yes
Used interface                              : Native Win32 interface for Win NT & 2000

Used output format              : User Defined Encoder
Selected bitrate                : 1024 kBit/s
Quality                         : High
Add ID3 tag                     : No
Command line compressor         : C:\Program Files (x86)\Exact Audio Copy\FLAC\FLAC.EXE
Additional command line options : -V -8 -T "Date=%year%" -T"Genre=%genre%" -T"COMMENT=Ripped by Ilijan - ilko" -8 -V %source%

TOC of the extracted CD

     Track |   Start  |  Length  | Start sector | End sector
    ---------------------------------------------------------
        1  |  0:00.00 |  0:29.34 |         0    |     2208
        2  |  0:29.34 |  6:49.73 |      2209    |    32956
        3  |  7:19.32 |  5:32.63 |     32957    |    57919
        4  | 12:52.20 |  4:48.57 |     57920    |    79576
        5  | 17:41.02 |  5:24.01 |     79577    |   103877
        6  | 23:05.03 |  1:22.34 |    103878    |   110061
        7  | 24:27.37 |  6:48.29 |    110062    |   140690
        8  | 31:15.66 |  5:42.03 |    140691    |   166343
        9  | 36:57.69 |  4:48.44 |    166344    |   187987
       10  | 41:46.38 |  4:55.50 |    187988    |   210162
       11  | 46:42.13 |  4:08.01 |    210163    |   228763
       12  | 50:50.14 |  1:35.05 |    228764    |   235893
       13  | 52:25.19 |  4:54.73 |    235894    |   258016
       14  | 57:20.17 |  4:34.51 |    258017    |   278617
       15  | 61:54.68 |  0:40.52 |    278618    |   281669
       16  | 62:35.45 |  4:45.01 |    281670    |   303045

Range status and errors

Selected range

     Filename D:\ilko\Serenity - Death & Legacy.wav

     Peak level 99.9 %
     Extraction speed 4.4 X
     Range quality 100.0 %
     Test CRC 719D4709
     Copy CRC 719D4709
     Copy OK

No errors occurred

AccurateRip summary

Track  1  accurately ripped (confidence 22)  [784E9C90]  (AR v2)
Track  2  accurately ripped (confidence 22)  [7FBB95FB]  (AR v2)
Track  3  accurately ripped (confidence 22)  [E1396C44]  (AR v2)
Track  4  accurately ripped (confidence 22)  [D101DEEC]  (AR v2)
Track  5  accurately ripped (confidence 22)  [ED95A953]  (AR v2)
Track  6  accurately ripped (confidence 22)  [BAF52C3B]  (AR v2)
Track  7  accurately ripped (confidence 22)  [6F484ABC]  (AR v2)
Track  8  accurately ripped (confidence 22)  [5ABB4B7F]  (AR v2)
Track  9  accurately ripped (confidence 22)  [BECE92AE]  (AR v2)
Track 10  accurately ripped (confidence 22)  [5E7A9E11]  (AR v2)
Track 11  accurately ripped (confidence 22)  [5DDDB26C]  (AR v2)
Track 12  accurately ripped (confidence 22)  [E10636F9]  (AR v2)
Track 13  accurately ripped (confidence 22)  [5DD18722]  (AR v2)
Track 14  accurately ripped (confidence 22)  [51BAAE5B]  (AR v2)
Track 15  accurately ripped (confidence 22)  [1DE37D0D]  (AR v2)
Track 16  accurately ripped (confidence 22)  [ED290FD6]  (AR v2)

All tracks accurately ripped

End of status report

Код:

Exact Audio Copy V1.3 from 2. September 2016

EAC extraction logfile from 15. February 2017, 17:10

Serenity / War of Ages (Japan)

Used drive  : ATAPI   iHAS122   W   Adapter: 2  ID: 0

Read mode               : Secure
Utilize accurate stream : Yes
Defeat audio cache      : Yes
Make use of C2 pointers : No

Read offset correction                      : 48
Overread into Lead-In and Lead-Out          : No
Fill up missing offset samples with silence : Yes
Delete leading and trailing silent blocks   : No
Null samples used in CRC calculations       : Yes
Used interface                              : Installed external ASPI interface

Used output format              : User Defined Encoder
Selected bitrate                : 1024 kBit/s
Quality                         : High
Add ID3 tag                     : No
Command line compressor         : C:\Program Files\FLAC\flac.exe
Additional command line options : -V -8 -T "Date=%year%" -T "Genre=%genre%" -T"COMMENT=Ripped by  Ilijan - ilko" -8 -V %source%

TOC of the extracted CD

     Track |   Start  |  Length  | Start sector | End sector
    ---------------------------------------------------------
        1  |  0:00.00 |  5:51.30 |         0    |    26354
        2  |  5:51.30 |  5:08.39 |     26355    |    49493
        3  | 10:59.69 |  5:08.63 |     49494    |    72656
        4  | 16:08.57 |  4:35.31 |     72657    |    93312
        5  | 20:44.13 |  6:38.70 |     93313    |   123232
        6  | 27:23.08 |  4:56.08 |    123233    |   145440
        7  | 32:19.16 |  4:57.34 |    145441    |   167749
        8  | 37:16.50 |  5:49.26 |    167750    |   193950
        9  | 43:06.01 |  5:01.46 |    193951    |   216571
       10  | 48:07.47 |  4:46.11 |    216572    |   238032
       11  | 52:53.58 |  4:29.12 |    238033    |   258219
       12  | 57:22.70 |  3:50.17 |    258220    |   275486

Range status and errors

Selected range

     Filename D:\ilko\Serenity - War of Ages (Japan).wav

     Peak level 99.7 %
     Extraction speed 4.0 X
     Range quality 100.0 %
     Test CRC BA48EA98
     Copy CRC BA48EA98
     Copy OK

No errors occurred

AccurateRip summary

Track  1  accurately ripped (confidence 4)  [795CDD2B]  (AR v2)
Track  2  accurately ripped (confidence 4)  [4B224FEE]  (AR v2)
Track  3  accurately ripped (confidence 4)  [CAFB0FEB]  (AR v2)
Track  4  accurately ripped (confidence 4)  [91279085]  (AR v2)
Track  5  accurately ripped (confidence 4)  [DBC330F9]  (AR v2)
Track  6  accurately ripped (confidence 4)  [5AD84D71]  (AR v2)
Track  7  accurately ripped (confidence 4)  [989F1B67]  (AR v2)
Track  8  accurately ripped (confidence 4)  [E0C02028]  (AR v2)
Track  9  accurately ripped (confidence 4)  [B50A086E]  (AR v2)
Track 10  accurately ripped (confidence 4)  [36BCA4E2]  (AR v2)
Track 11  accurately ripped (confidence 4)  [2F91CF12]  (AR v2)
Track 12  accurately ripped (confidence 4)  [B5FC849E]  (AR v2)

All tracks accurately ripped

End of status report

Код:

Exact Audio Copy V1.3 from 2. September 2016

EAC extraction logfile from 15. February 2017, 17:48

Serenity / Codex Atlanticus (Japan)

Used drive  : ATAPI   iHAS122   W   Adapter: 2  ID: 0

Read mode               : Secure
Utilize accurate stream : Yes
Defeat audio cache      : Yes
Make use of C2 pointers : No

Read offset correction                      : 48
Overread into Lead-In and Lead-Out          : No
Fill up missing offset samples with silence : Yes
Delete leading and trailing silent blocks   : No
Null samples used in CRC calculations       : Yes
Used interface                              : Installed external ASPI interface

Used output format              : User Defined Encoder
Selected bitrate                : 1024 kBit/s
Quality                         : High
Add ID3 tag                     : No
Command line compressor         : C:\Program Files\FLAC\flac.exe
Additional command line options : -V -8 -T "Date=%year%" -T "Genre=%genre%" -T"COMMENT=Ripped by  Ilijan - ilko" -8 -V %source%

TOC of the extracted CD

     Track |   Start  |  Length  | Start sector | End sector
    ---------------------------------------------------------
        1  |  0:00.00 |  1:55.74 |         0    |     8698
        2  |  1:55.74 |  3:52.34 |      8699    |    26132
        3  |  5:48.33 |  5:14.54 |     26133    |    49736
        4  | 11:03.12 |  5:33.42 |     49737    |    74753
        5  | 16:36.54 |  4:13.69 |     74754    |    93797
        6  | 20:50.48 |  4:13.03 |     93798    |   112775
        7  | 25:03.51 |  5:35.07 |    112776    |   137907
        8  | 30:38.58 |  4:45.17 |    137908    |   159299
        9  | 35:24.00 |  4:57.20 |    159300    |   181594
       10  | 40:21.20 |  5:01.71 |    181595    |   204240
       11  | 45:23.16 |  5:26.23 |    204241    |   228713
       12  | 50:49.39 |  5:32.58 |    228714    |   253671
       13  | 56:22.22 |  4:13.08 |    253672    |   272654
       14  | 60:35.30 |  4:13.01 |    272655    |   291630
       15  | 64:48.31 |  4:11.05 |    291631    |   310460

Range status and errors

Selected range

     Filename D:\ilko\Serenity - Codex Atlanticus (Japan).wav

     Peak level 99.7 %
     Extraction speed 4.5 X
     Range quality 100.0 %
     Test CRC 5EEEF92D
     Copy CRC 5EEEF92D
     Copy OK

No errors occurred

AccurateRip summary

Track  1  accurately ripped (confidence 2)  [CC622741]  (AR v2)
Track  2  accurately ripped (confidence 2)  [73B5212D]  (AR v2)
Track  3  accurately ripped (confidence 2)  [631C1C60]  (AR v2)
Track  4  accurately ripped (confidence 2)  [C968F0A1]  (AR v2)
Track  5  accurately ripped (confidence 2)  [4C4DD7FA]  (AR v2)
Track  6  accurately ripped (confidence 2)  [9D772498]  (AR v2)
Track  7  accurately ripped (confidence 2)  [8360622A]  (AR v2)
Track  8  accurately ripped (confidence 2)  [73078EE6]  (AR v2)
Track  9  accurately ripped (confidence 2)  [B764887D]  (AR v2)
Track 10  accurately ripped (confidence 2)  [397610AF]  (AR v2)
Track 11  accurately ripped (confidence 2)  [2E19D988]  (AR v2)
Track 12  accurately ripped (confidence 2)  [589BC6D9]  (AR v2)
Track 13  accurately ripped (confidence 2)  [1DAA1DD9]  (AR v2)
Track 14  accurately ripped (confidence 2)  [D586BBA2]  (AR v2)
Track 15  accurately ripped (confidence 2)  [0EF27EAF]  (AR v2)

All tracks accurately ripped

End of status report

Код:

Exact Audio Copy V1.1 from 23. June 2015

EAC extraction logfile from 26. October 2017, 11:10

Serenity / Lionheart

Used drive  : ATAPI   DVD A  DH16ABSH   Adapter: 2  ID: 0

Read mode               : Secure
Utilize accurate stream : Yes
Defeat audio cache      : Yes
Make use of C2 pointers : No

Read offset correction                      : 6
Overread into Lead-In and Lead-Out          : No
Fill up missing offset samples with silence : Yes
Delete leading and trailing silent blocks   : No
Null samples used in CRC calculations       : Yes
Used interface                              : Installed external ASPI interface

Used output format              : User Defined Encoder
Selected bitrate                : 1024 kBit/s
Quality                         : High
Add ID3 tag                     : No
Command line compressor         : C:\Program Files (x86)\Exact Audio Copy\FLAC\FLAC.EXE
Additional command line options : -6 -V -T "ARTIST=%artist%" -T "TITLE=%title%" -T "ALBUM=%albumtitle%" -T "DATE=%year%" -T "TRACKNUMBER=%tracknr%" -T "GENRE=%genre%" -T "COMMENT=%comment%" -T "BAND=%albuminterpret%" -T "ALBUMARTIST=%albuminterpret%" -T "COMPOSER=%composer%" %haslyrics%--tag-from-file=LYRICS="%lyricsfile%"%haslyrics% -T "DISCNUMBER=%cdnumber%" -T "TOTALDISCS=%totalcds%" -T "TOTALTRACKS=%numtracks%" %hascover%--picture="%coverfile%"%hascover% %source% -o %dest%

TOC of the extracted CD

     Track |   Start  |  Length  | Start sector | End sector
    ---------------------------------------------------------
        1  |  0:00.00 |  1:52.28 |         0    |     8427
        2  |  1:52.28 |  5:33.40 |      8428    |    33442
        3  |  7:25.68 |  4:38.08 |     33443    |    54300
        4  | 12:04.01 |  4:24.63 |     54301    |    74163
        5  | 16:28.64 |  3:31.31 |     74164    |    90019
        6  | 20:00.20 |  4:09.30 |     90020    |   108724
        7  | 24:09.50 |  2:10.64 |    108725    |   118538
        8  | 26:20.39 |  4:41.20 |    118539    |   139633
        9  | 31:01.59 |  4:25.39 |    139634    |   159547
       10  | 35:27.23 |  4:26.62 |    159548    |   179559
       11  | 39:54.10 |  4:27.39 |    179560    |   199623
       12  | 44:21.49 |  4:45.39 |    199624    |   221037
       13  | 49:07.13 |  5:37.61 |    221038    |   246373

Range status and errors

Selected range

     Filename E:\toydollsru\Serenity - Lionheart.wav

     Peak level 99.5 %
     Extraction speed 8.1 X
     Range quality 99.9 %
     Test CRC 6FD0087C
     Copy CRC 6FD0087C
     Copy OK

No errors occurred

AccurateRip summary

Track  1  not present in database
Track  2  not present in database
Track  3  not present in database
Track  4  not present in database
Track  5  not present in database
Track  6  not present in database
Track  7  not present in database
Track  8  not present in database
Track  9  not present in database
Track 10  not present in database
Track 11  not present in database
Track 12  not present in database
Track 13  not present in database

None of the tracks are present in the AccurateRip database

End of status report

Код:

Exact Audio Copy V1.1 from 23. June 2015

EAC extraction logfile from 26. October 2017, 11:25

Serenity / Lionheart (Bonus CD)

Used drive  : ATAPI   DVD A  DH16ABSH   Adapter: 2  ID: 0

Read mode               : Secure
Utilize accurate stream : Yes
Defeat audio cache      : Yes
Make use of C2 pointers : No

Read offset correction                      : 6
Overread into Lead-In and Lead-Out          : No
Fill up missing offset samples with silence : Yes
Delete leading and trailing silent blocks   : No
Null samples used in CRC calculations       : Yes
Used interface                              : Installed external ASPI interface

Used output format              : User Defined Encoder
Selected bitrate                : 1024 kBit/s
Quality                         : High
Add ID3 tag                     : No
Command line compressor         : C:\Program Files (x86)\Exact Audio Copy\FLAC\FLAC.EXE
Additional command line options : -6 -V -T "ARTIST=%artist%" -T "TITLE=%title%" -T "ALBUM=%albumtitle%" -T "DATE=%year%" -T "TRACKNUMBER=%tracknr%" -T "GENRE=%genre%" -T "COMMENT=%comment%" -T "BAND=%albuminterpret%" -T "ALBUMARTIST=%albuminterpret%" -T "COMPOSER=%composer%" %haslyrics%--tag-from-file=LYRICS="%lyricsfile%"%haslyrics% -T "DISCNUMBER=%cdnumber%" -T "TOTALDISCS=%totalcds%" -T "TOTALTRACKS=%numtracks%" %hascover%--picture="%coverfile%"%hascover% %source% -o %dest%

TOC of the extracted CD

     Track |   Start  |  Length  | Start sector | End sector
    ---------------------------------------------------------
        1  |  0:00.00 |  4:30.31 |         0    |    20280
        2  |  4:30.31 |  3:34.44 |     20281    |    36374
        3  |  8:05.00 |  4:54.20 |     36375    |    58444
        4  | 12:59.20 |  4:36.02 |     58445    |    79146
        5  | 17:35.22 |  4:06.01 |     79147    |    97597

Range status and errors

Selected range

     Filename E:\toydollsru\Serenity - Lionheart (Bonus CD).wav

     Peak level 98.2 %
     Extraction speed 6.7 X
     Range quality 100.0 %
     Test CRC 73394A2C
     Copy CRC 73394A2C
     Copy OK

No errors occurred

AccurateRip summary

Track  1  not present in database
Track  2  not present in database
Track  3  not present in database
Track  4  not present in database
Track  5  not present in database

None of the tracks are present in the AccurateRip database

End of status report

Код:

REM GENRE "Symphonic Power Metal"
REM DATE 2007
REM DISCID 940B220A
REM COMMENT "ExactAudioCopy v1.3"
PERFORMER "Serenity"
TITLE "Words Untold & Dreams Unlived (Japan)"
FILE "Serenity - Words Untold & Dreams Unlived (Japan).flac" WAVE
  TRACK 01 AUDIO
    TITLE "Canopus 3"
    PERFORMER "Serenity"
    FLAGS DCP
    INDEX 01 00:00:00
  TRACK 02 AUDIO
    TITLE "Reduced to Nothingness"
    PERFORMER "Serenity"
    FLAGS DCP
    INDEX 00 04:30:00
    INDEX 01 04:31:00
  TRACK 03 AUDIO
    TITLE "Words Untold (Instrumental)"
    PERFORMER "Serenity"
    FLAGS DCP
    INDEX 00 09:24:03
    INDEX 01 09:26:03
  TRACK 04 AUDIO
    TITLE "Circle of My 2nd Life"
    PERFORMER "Serenity"
    FLAGS DCP
    INDEX 01 10:24:41
  TRACK 05 AUDIO
    TITLE "Engraved Within"
    PERFORMER "Serenity"
    FLAGS DCP
    INDEX 00 15:55:48
    INDEX 01 15:57:48
  TRACK 06 AUDIO
    TITLE "Forever"
    PERFORMER "Serenity"
    FLAGS DCP
    INDEX 00 22:17:48
    INDEX 01 22:19:48
  TRACK 07 AUDIO
    TITLE "Dreams Unlived (Instrumental)"
    PERFORMER "Serenity"
    FLAGS DCP
    INDEX 00 29:00:48
    INDEX 01 29:02:48
  TRACK 08 AUDIO
    TITLE "Dead Man Walking"
    PERFORMER "Serenity"
    FLAGS DCP
    INDEX 01 29:53:65
  TRACK 09 AUDIO
    TITLE "From Where the Dark Is Born"
    PERFORMER "Serenity"
    FLAGS DCP
    INDEX 00 34:46:13
    INDEX 01 34:48:13
  TRACK 10 AUDIO
    TITLE "Thriven"
    PERFORMER "Serenity"
    FLAGS DCP
    INDEX 00 41:04:15
    INDEX 01 41:06:15

Код:

REM GENRE "Symphonic Power Metal"
REM DATE 2008
REM DISCID A50F0E0B
REM COMMENT "ExactAudioCopy v1.3"
PERFORMER "Serenity"
TITLE "Fallen Sanctuary"
FILE "Serenity - Fallen Sanctuary.flac" WAVE
  TRACK 01 AUDIO
    TITLE "All Lights Reversed"
    PERFORMER "Serenity"
    INDEX 01 00:00:00
  TRACK 02 AUDIO
    TITLE "Rust of Coming Ages"
    PERFORMER "Serenity"
    INDEX 01 06:17:59
  TRACK 03 AUDIO
    TITLE "Coldness Kills"
    PERFORMER "Serenity"
    INDEX 01 10:48:15
  TRACK 04 AUDIO
    TITLE "To Stone She Turned"
    PERFORMER "Serenity"
    INDEX 00 16:14:20
    INDEX 01 16:15:73
  TRACK 05 AUDIO
    TITLE "Fairytales"
    PERFORMER "Serenity"
    INDEX 01 21:14:30
  TRACK 06 AUDIO
    TITLE "The Heartblood Symphony"
    PERFORMER "Serenity"
    INDEX 01 26:08:03
  TRACK 07 AUDIO
    TITLE "Velatum"
    PERFORMER "Serenity"
    INDEX 00 31:32:60
    INDEX 01 31:35:07
  TRACK 08 AUDIO
    TITLE "Derelict"
    PERFORMER "Serenity"
    INDEX 01 36:04:26
  TRACK 09 AUDIO
    TITLE "Sheltered (by the Obscure)"
    PERFORMER "Serenity"
    INDEX 01 40:30:46
  TRACK 10 AUDIO
    TITLE "Oceans of Ruby"
    PERFORMER "Serenity"
    INDEX 01 45:30:53

Код:

REM GENRE "Symphonic Power Metal"
REM DATE 2011
REM DISCID ED117511
REM COMMENT "ExactAudioCopy v1.3"
PERFORMER "Serenity"
TITLE "Death & Legacy (Japan)"
FILE "Serenity - Death & Legacy (Japan).flac" WAVE
  TRACK 01 AUDIO
    TITLE "Set Sail to... (Intro)"
    PERFORMER "Serenity"
    FLAGS DCP
    INDEX 01 00:00:00
  TRACK 02 AUDIO
    TITLE "New Horizons"
    PERFORMER "Serenity"
    FLAGS DCP
    INDEX 01 00:29:34
  TRACK 03 AUDIO
    TITLE "The Chevalier"
    PERFORMER "Serenity"
    FLAGS DCP
    INDEX 01 07:19:32
  TRACK 04 AUDIO
    TITLE "Far From Home"
    PERFORMER "Serenity"
    FLAGS DCP
    INDEX 00 12:51:36
    INDEX 01 12:52:20
  TRACK 05 AUDIO
    TITLE "Heavenly Mission"
    PERFORMER "Serenity"
    FLAGS DCP
    INDEX 00 17:39:24
    INDEX 01 17:41:02
  TRACK 06 AUDIO
    TITLE "Prayer (Interlude)"
    PERFORMER "Serenity"
    FLAGS DCP
    INDEX 01 23:05:03
  TRACK 07 AUDIO
    TITLE "State of Siege"
    PERFORMER "Serenity"
    FLAGS DCP
    INDEX 01 24:27:37
  TRACK 08 AUDIO
    TITLE "Changing Fate"
    PERFORMER "Serenity"
    FLAGS DCP
    INDEX 00 31:14:39
    INDEX 01 31:15:66
  TRACK 09 AUDIO
    TITLE "When Canvas Starts to Burn"
    PERFORMER "Serenity"
    FLAGS DCP
    INDEX 00 36:55:69
    INDEX 01 36:57:69
  TRACK 10 AUDIO
    TITLE "Serenade of Flames"
    PERFORMER "Serenity"
    FLAGS DCP
    INDEX 00 41:45:57
    INDEX 01 41:46:38
  TRACK 11 AUDIO
    TITLE "Youngest of Widows (Bonus Track)"
    PERFORMER "Serenity"
    FLAGS DCP
    INDEX 00 46:40:13
    INDEX 01 46:42:13
  TRACK 12 AUDIO
    TITLE "Below Eastern Skies (Interlude)"
    PERFORMER "Serenity"
    FLAGS DCP
    INDEX 00 50:48:14
    INDEX 01 50:50:14
  TRACK 13 AUDIO
    TITLE "Beyond Desert Sands"
    PERFORMER "Serenity"
    FLAGS DCP
    INDEX 01 52:25:19
  TRACK 14 AUDIO
    TITLE "To India's Shores (Bonus Track)"
    PERFORMER "Serenity"
    FLAGS DCP
    INDEX 00 57:18:17
    INDEX 01 57:20:17
  TRACK 15 AUDIO
    TITLE "Lament (Interlude)"
    PERFORMER "Serenity"
    FLAGS DCP
    INDEX 01 61:54:68
  TRACK 16 AUDIO
    TITLE "My Legacy"
    PERFORMER "Serenity"
    FLAGS DCP
    INDEX 01 62:35:45
  TRACK 17 AUDIO
    TITLE "Guiding Light (Bonus Track)"
    PERFORMER "Serenity"
    FLAGS DCP
    INDEX 00 67:20:46
    INDEX 01 67:22:46

Код:

REM GENRE "Symphonic Power Metal"
REM DATE 2011
REM DISCID E10FC810
REM COMMENT "ExactAudioCopy v1.3"
PERFORMER "Serenity"
TITLE "Death & Legacy"
FILE "Serenity - Death & Legacy.flac" WAVE
  TRACK 01 AUDIO
    TITLE "Set Sail to... (Intro)"
    PERFORMER "Serenity"
    FLAGS DCP
    INDEX 01 00:00:00
  TRACK 02 AUDIO
    TITLE "New Horizons"
    PERFORMER "Serenity"
    FLAGS DCP
    INDEX 01 00:29:34
  TRACK 03 AUDIO
    TITLE "The Chevalier"
    PERFORMER "Serenity"
    FLAGS DCP
    INDEX 01 07:19:32
  TRACK 04 AUDIO
    TITLE "Far From Home"
    PERFORMER "Serenity"
    FLAGS DCP
    INDEX 00 12:51:36
    INDEX 01 12:52:20
  TRACK 05 AUDIO
    TITLE "Heavenly Mission"
    PERFORMER "Serenity"
    FLAGS DCP
    INDEX 00 17:39:24
    INDEX 01 17:41:02
  TRACK 06 AUDIO
    TITLE "Prayer (Interlude)"
    PERFORMER "Serenity"
    FLAGS DCP
    INDEX 01 23:05:03
  TRACK 07 AUDIO
    TITLE "State of Siege"
    PERFORMER "Serenity"
    FLAGS DCP
    INDEX 01 24:27:37
  TRACK 08 AUDIO
    TITLE "Changing Fate"
    PERFORMER "Serenity"
    FLAGS DCP
    INDEX 00 31:14:39
    INDEX 01 31:15:66
  TRACK 09 AUDIO
    TITLE "When Canvas Starts to Burn"
    PERFORMER "Serenity"
    FLAGS DCP
    INDEX 00 36:55:69
    INDEX 01 36:57:69
  TRACK 10 AUDIO
    TITLE "Serenade of Flames"
    PERFORMER "Serenity"
    FLAGS DCP
    INDEX 00 41:45:57
    INDEX 01 41:46:38
  TRACK 11 AUDIO
    TITLE "Youngest of Widows (Bonus Track)"
    PERFORMER "Serenity"
    FLAGS DCP
    INDEX 00 46:40:13
    INDEX 01 46:42:13
  TRACK 12 AUDIO
    TITLE "Below Eastern Skies (Interlude)"
    PERFORMER "Serenity"
    FLAGS DCP
    INDEX 00 50:48:14
    INDEX 01 50:50:14
  TRACK 13 AUDIO
    TITLE "Beyond Desert Sands"
    PERFORMER "Serenity"
    FLAGS DCP
    INDEX 01 52:25:19
  TRACK 14 AUDIO
    TITLE "To India's Shores (Bonus Track)"
    PERFORMER "Serenity"
    FLAGS DCP
    INDEX 00 57:18:17
    INDEX 01 57:20:17
  TRACK 15 AUDIO
    TITLE "Lament (Interlude)"
    PERFORMER "Serenity"
    FLAGS DCP
    INDEX 01 61:54:68
  TRACK 16 AUDIO
    TITLE "My Legacy"
    PERFORMER "Serenity"
    FLAGS DCP
    INDEX 01 62:35:45

Код:

REM GENRE "Symphonic Power Metal"
REM DATE 2013
REM DISCID B60E590C
REM COMMENT "ExactAudioCopy v1.3"
PERFORMER "Serenity"
TITLE "War of Ages (Japan)"
FILE "Serenity - War of Ages (Japan).flac" WAVE
  TRACK 01 AUDIO
    TITLE "Wings of Madness"
    PERFORMER "Serenity"
    INDEX 01 00:00:00
  TRACK 02 AUDIO
    TITLE "The Art of War"
    PERFORMER "Serenity"
    INDEX 00 05:51:03
    INDEX 01 05:51:30
  TRACK 03 AUDIO
    TITLE "Shining Oasis"
    PERFORMER "Serenity"
    INDEX 00 10:58:49
    INDEX 01 10:59:69
  TRACK 04 AUDIO
    TITLE "For Freedom's Sake"
    PERFORMER "Serenity"
    INDEX 00 16:06:70
    INDEX 01 16:08:57
  TRACK 05 AUDIO
    TITLE "Age of Glory"
    PERFORMER "Serenity"
    INDEX 00 20:43:02
    INDEX 01 20:44:13
  TRACK 06 AUDIO
    TITLE "The Matricide"
    PERFORMER "Serenity"
    INDEX 00 27:22:17
    INDEX 01 27:23:08
  TRACK 07 AUDIO
    TITLE "Symphony for the Quiet"
    PERFORMER "Serenity"
    INDEX 00 32:17:16
    INDEX 01 32:19:16
  TRACK 08 AUDIO
    TITLE "Tannenberg"
    PERFORMER "Serenity"
    INDEX 00 37:16:20
    INDEX 01 37:16:50
  TRACK 09 AUDIO
    TITLE "Legacy of Tudors"
    PERFORMER "Serenity"
    INDEX 00 43:04:74
    INDEX 01 43:06:01
  TRACK 10 AUDIO
    TITLE "Royal Pain"
    PERFORMER "Serenity"
    INDEX 00 48:06:24
    INDEX 01 48:07:47
  TRACK 11 AUDIO
    TITLE "Fairytales (Piano Version) (Bonus Track)"
    PERFORMER "Serenity"
    INDEX 00 52:50:72
    INDEX 01 52:53:58
  TRACK 12 AUDIO
    TITLE "Love of My Life (Bonus Track)"
    PERFORMER "Serenity"
    INDEX 00 57:20:70
    INDEX 01 57:22:70

Код:

REM GENRE "Progressive/Power Metal"
REM DATE 2016
REM DISCID C8102B0F
REM COMMENT "ExactAudioCopy v1.3"
PERFORMER "Serenity"
TITLE "Codex Atlanticus (Japan)"
FILE "Serenity - Codex Atlanticus (Japan).flac" WAVE
  TRACK 01 AUDIO
    TITLE "Codex Atlanticus"
    PERFORMER "Serenity"
    INDEX 01 00:00:00
  TRACK 02 AUDIO
    TITLE "Follow Me"
    PERFORMER "Serenity"
    INDEX 01 01:55:74
  TRACK 03 AUDIO
    TITLE "Sprouts Of Terror"
    PERFORMER "Serenity"
    INDEX 00 05:48:01
    INDEX 01 05:48:33
  TRACK 04 AUDIO
    TITLE "Iniquity"
    PERFORMER "Serenity"
    INDEX 00 11:02:36
    INDEX 01 11:03:12
  TRACK 05 AUDIO
    TITLE "Reason"
    PERFORMER "Serenity"
    INDEX 00 16:36:14
    INDEX 01 16:36:54
  TRACK 06 AUDIO
    TITLE "My Final Chapter"
    PERFORMER "Serenity"
    INDEX 00 20:49:58
    INDEX 01 20:50:48
  TRACK 07 AUDIO
    TITLE "Caught In A  Myth"
    PERFORMER "Serenity"
    INDEX 00 25:01:51
    INDEX 01 25:03:51
  TRACK 08 AUDIO
    TITLE "Fate Of Light"
    PERFORMER "Serenity"
    INDEX 00 30:36:58
    INDEX 01 30:38:58
  TRACK 09 AUDIO
    TITLE "The Perfect Woman"
    PERFORMER "Serenity"
    INDEX 00 35:22:00
    INDEX 01 35:24:00
  TRACK 10 AUDIO
    TITLE "Spirit In The Flesh"
    PERFORMER "Serenity"
    INDEX 00 40:18:20
    INDEX 01 40:21:20
  TRACK 11 AUDIO
    TITLE "The Order"
    PERFORMER "Serenity"
    INDEX 00 45:21:36
    INDEX 01 45:23:16
  TRACK 12 AUDIO
    TITLE "Forgive Me (Bonus Track)"
    PERFORMER "Serenity"
    INDEX 00 50:46:39
    INDEX 01 50:49:39
  TRACK 13 AUDIO
    TITLE "Sail (Bonus Track)"
    PERFORMER "Serenity"
    INDEX 00 56:19:59
    INDEX 01 56:22:22
  TRACK 14 AUDIO
    TITLE "My Final Chapter (Orchestral Version) (Bonus Track)"
    PERFORMER "Serenity"
    INDEX 00 60:32:30
    INDEX 01 60:35:30
  TRACK 15 AUDIO
    TITLE "My Final Chapter (Instrumental Version) (Bonus Track)"
    PERFORMER "Serenity"
    INDEX 00 64:46:31
    INDEX 01 64:48:31

Код:

REM GENRE "Symphonic Power Metal"
REM DATE 2017
REM DISCID B50CD40D
REM COMMENT "ExactAudioCopy v1.1"
PERFORMER "Serenity"
TITLE "Lionheart"
FILE "Serenity - Lionheart.flac" WAVE
  TRACK 01 AUDIO
    TITLE "Deus Lo Vult"
    PERFORMER "Serenity"
    FLAGS DCP
    INDEX 01 00:00:00
  TRACK 02 AUDIO
    TITLE "United"
    PERFORMER "Serenity"
    FLAGS DCP
    INDEX 01 01:52:28
  TRACK 03 AUDIO
    TITLE "Lionheart"
    PERFORMER "Serenity"
    FLAGS DCP
    INDEX 01 07:25:68
  TRACK 04 AUDIO
    TITLE "Hero"
    PERFORMER "Serenity"
    FLAGS DCP
    INDEX 01 12:04:01
  TRACK 05 AUDIO
    TITLE "Rising High"
    PERFORMER "Serenity"
    FLAGS DCP
    INDEX 01 16:28:64
  TRACK 06 AUDIO
    TITLE "Heaven"
    PERFORMER "Serenity"
    FLAGS DCP
    INDEX 01 20:00:20
  TRACK 07 AUDIO
    TITLE "King's Landing"
    PERFORMER "Serenity"
    FLAGS DCP
    INDEX 01 24:09:50
  TRACK 08 AUDIO
    TITLE "Eternal Victory"
    PERFORMER "Serenity"
    FLAGS DCP
    INDEX 01 26:20:39
  TRACK 09 AUDIO
    TITLE "Stand and Fight"
    PERFORMER "Serenity"
    FLAGS DCP
    INDEX 01 31:01:59
  TRACK 10 AUDIO
    TITLE "The Fortress (of Blood and Sand)"
    PERFORMER "Serenity"
    FLAGS DCP
    INDEX 01 35:27:23
  TRACK 11 AUDIO
    TITLE "Empire"
    PERFORMER "Serenity"
    FLAGS DCP
    INDEX 01 39:54:10
  TRACK 12 AUDIO
    TITLE "My Fantasy"
    PERFORMER "Serenity"
    FLAGS DCP
    INDEX 01 44:21:49
  TRACK 13 AUDIO
    TITLE "The Final Crusade"
    PERFORMER "Serenity"
    FLAGS DCP
    INDEX 01 49:07:13

Код:

REM GENRE "Symphonic Power Metal"
REM DATE 2017
REM DISCID 3D051505
REM COMMENT "ExactAudioCopy v1.1"
PERFORMER "Serenity"
TITLE "Lionheart (Bonus CD)"
FILE "Serenity - Lionheart (Bonus CD).flac" WAVE
  TRACK 01 AUDIO
    TITLE "Engraved Within (Piano Version)"
    PERFORMER "Serenity"
    FLAGS DCP
    INDEX 01 00:00:00
  TRACK 02 AUDIO
    TITLE "When Canvas Starts To Burn (Piano Version)"
    PERFORMER "Serenity"
    FLAGS DCP
    INDEX 00 04:29:37
    INDEX 01 04:30:31
  TRACK 03 AUDIO
    TITLE "Coldness Kills (Piano Version)"
    PERFORMER "Serenity"
    FLAGS DCP
    INDEX 00 08:03:65
    INDEX 01 08:05:00
  TRACK 04 AUDIO
    TITLE "To India's Shores (Death & Legacy)"
    PERFORMER "Serenity"
    FLAGS DCP
    INDEX 00 12:57:20
    INDEX 01 12:59:20
  TRACK 05 AUDIO
    TITLE "Youngest Of Widows (Death & Legacy)"
    PERFORMER "Serenity"
    FLAGS DCP
    INDEX 00 17:33:71
    INDEX 01 17:35:22





БиографияSerenity была основана в Тироле, Австрия в январе 2001 года. Группа получила хорошие отзывы за свою первую демозапись «Starseed V.R.». В 2003—2004 гг. трое участников покинули группу. С февраля по март 2004 года им была найдена замена. Следующая демозапись группы, «Engraved Within», изданная в апреле 2005 года, была встречена положительными рецензиями от таких журналов, как Metal Hammer

Дебютный альбом группы «Words Untold and Dreams Unlived» был издан в Европе 27 апреля 2007 года и 8 мая в США и Канаде под лейблом Napalm Records. Группа отправилась в тур по Европе в поддержку альбома «Words Untold and Dreams Unlived» с Morgana Lefay, Threshold и позднее Kamelot. В декабре 2007 года группа приступила к записи второго альбома, он получил название «Fallen Sanctuary» и был выпущен 29 августа 2008 года в Европе и 9 сентября в США. Диск также содержал первый видеоклип группы «Velatum», режиссёром которого выступил Robert Geir. Оно было снято 2—5 июля и опубликовано на официальном сайте группы 17 июля в поддержку нового альбома.

Весной 2009 года Serenity в качестве группы поддержки отправилась в тур «Rule The World Tour 2009» вместе с Kamelot. Осенью этого же года группа выступала со своими давними друзьями Edenbridge, и через несколько недель спустя как специальный гость с группой Threshold в их туре «Essence Of Progression».

После турне группа сконцентрировалась на записи нового альбома под названием «Death & Legacy», запланированного к выходу 25 февраля 2011 года. Оркестровые части были записаны Oliver Philipps, альбом был спродюсирован Jan Vacik. В конце августа 2010 басист Simon Holzknecht покинул группу по личным причинам. Его место занял Fabio D’Amore (Pathosray, Fairyland, Syrayde).

25 января 2011 года на официальном сайте было опубликовано новое видео «The Chevalier», в котором в качестве специальной гостьи приняла участие вокалистка группы Sirenia Айлин. 5 февраля был также опубликован ещё один трек из будущего альбома «Serenade Of Flames», в записи которого приняла участие солистка Delain Шарлотта Весселс.

Третий студийный альбом «Death & Legacy» вышел 25 февраля 2011 года.

В 2011 году состоялись туры по Австрии, а также по всей Европе в поддержку Delain. На этих концертах с группой выступала Лиза Миддельхауфе, бывшая вокалистка немецкой симфо-метал-группы Xandria. В октябре 2011 группа также приняла участие в фестивальном туре «Out Of The Dark Tour» вместе с такими группами, как Xandria, Amberian Dawn, Van Canto и Tristania, здесь в качестве приглашённой вокалистки выступила Клементин Делоне (Clémentine Delauney) из французской группы Whyzdom.

14 ноября 2011 года группа представила видеоклип на песню «When Canvas Starts To Burn».

В начале 2013 года коллектив объявил, что новый альбом получил название «War Of Ages». Кроме того, с этого момента Клементин Делоне стала постоянной вокалисткой Serenity. Официальный релиз «War Of Ages» в Европе состоялся 22 марта 2013 года.



pb.wtf



Скачать Serenity - Дискография через торрент http://i101.fastpic.ru/big/2018/0305/d2/c2c364cb489b7ff5fa7a16b9bef13cd2.png Скачать фильм Serenity - Дискография через торрент бесплантно в хорошем качестве ... 5 10 1
Info! Золотая раздача, скачанное не засчитывается.
Торрент: Зарегистрирован [2018-03-05 12:25] · скачан: 10 раз
Статус: √ проверено
Размер: 3.83 GB
Как cкачать? Как скачать Serenity - Дискография через торрент | qTorrent

28-11-2019 20:33  

Отключить всю рекламу на сайте

    Дорогой пользователь! Огромная просьба, поблагодарите релизера, оцените раздачу и оставьте свои комментарий, если Вы скачали Serenity - Дискография через торрент бесплатно! Внесите свою лепту в развитие PiratBit!
    Комментировать посты могут только пользователи прошедшие не сложную регистрацию
    Показать сообщения:    

    Serenity - Дискография через торрент
    Скачать бесплатно Serenity - Дискография
    Serenity - Дискография скачать торрент
    Serenity - Дискография смотреть онлайн
    Cкачать фильм Serenity - Дискография бесплатно
    Serenity - Дискография скачать торрент в хорошем качестве
    Serenity - Дискография смотреть онлайн бесплатно в хорошем качестве


    Вы не можете начинать темы
    Вы не можете отвечать на сообщения
    Вы не можете редактировать свои сообщения
    Вы не можете удалять свои сообщения
    Вы не можете голосовать в опросах
    Вы не можете прикреплять файлы к сообщениям
    Вы можете скачивать файлы